<?xml version="1.0" standalone="no"?>
<!DOCTYPE svg PUBLIC "-//W3C//DTD SVG 1.1//EN" "http://www.w3.org/Graphics/SVG/1.1/DTD/svg11.dtd" >
<svg xmlns="http://www.w3.org/2000/svg">
<metadata>
This is a custom SVG webfont generated by Font Squirrel.
Copyright   : Copyright C 1993 Type Market Ltd Moscow 119136 Box 20 phone0951427712 Created by AKustov
</metadata>
<defs>
<font id="webfontdvAGtN8p" horiz-adv-x="1777" >
<font-face units-per-em="2048" ascent="1614" descent="-434" />
<missing-glyph horiz-adv-x="651" />
<glyph unicode=" "  horiz-adv-x="651" />
<glyph unicode="&#x09;" horiz-adv-x="651" />
<glyph unicode="&#xa0;" horiz-adv-x="651" />
<glyph unicode="!" horiz-adv-x="401" d="M287 344h-160v1077h160v-1077zM127 0v160h160v-160h-160z" />
<glyph unicode="&#x22;" horiz-adv-x="692" d="M422 1450h115l-25 -352h-66zM147 1450h115l-20 -352h-70z" />
<glyph unicode="#" horiz-adv-x="1310" d="M522 1243h115l-70 -266h303l70 266h111l-66 -266h266l-28 -115h-271l-61 -254h266l-29 -114h-266l-69 -279h-111l70 279h-303l-70 -279h-111l70 279h-279l25 114h283l61 254h-278l32 115h275zM840 862h-308l-61 -254h303z" />
<glyph unicode="$" horiz-adv-x="1847" d="M844 1286h-355q-119 0 -179 -60.5t-60 -205.5q0 -221 239 -221h355v487zM991 143h336q147 0 206.5 69t59.5 198q0 139 -50 192t-216 53h-336v-512zM844 655h-328q-231 0 -322.5 92.5t-91.5 268.5q0 190 105.5 302t316.5 112h320v126h147v-126h262q256 0 372 -95.5 t116 -302.5h-148q0 129 -75.5 191.5t-270.5 62.5h-256v-487h309q246 0 343.5 -90.5t97.5 -298.5q0 -88 -17.5 -156t-60.5 -128t-130 -93t-216 -33h-326v-184h-147v184h-314q-203 0 -315.5 98.5t-112.5 298.5h148q0 -254 270 -254h324v512z" />
<glyph unicode="%" horiz-adv-x="2355" d="M930 1098q0 115 -41 155.5t-156 40.5h-303q-123 0 -164 -40t-41 -156v-238q0 -106 46 -151t159 -45h303q109 0 153 44t44 152v238zM1057 848q0 -166 -73 -236.5t-239 -70.5h-331q-172 0 -244 70.5t-72 236.5v262q0 172 69 239.5t249 67.5h329q164 0 238 -67.5t74 -239.5 v-262zM1458 1491l-422 -1561h-118l417 1561h123zM2150 557q0 115 -41 156t-155 41h-303q-123 0 -164 -40t-41 -157v-238q0 -106 46 -151t159 -45h303q109 0 152.5 44t43.5 152v238zM2277 307q0 -166 -72.5 -236.5t-238.5 -70.5h-332q-172 0 -243.5 70.5t-71.5 236.5v262 q0 172 68.5 240t248.5 68h330q164 0 237.5 -68t73.5 -240v-262z" />
<glyph unicode="&#x26;" horiz-adv-x="2023" d="M1626 90l-6 -4q-6 -6 -18.5 -14.5t-30 -17.5t-46 -18t-62 -17.5t-82 -13.5t-103.5 -5h-676q-219 0 -359.5 124t-140.5 368q0 274 213 366q53 23 99 27l-8 4q-6 6 -15.5 18.5t-19 30.5t-16.5 53t-7 78q0 184 135 268t361 84h430q129 0 225 -34.5t142.5 -79.5t74 -109.5 t32.5 -103.5t5 -82h-147q0 262 -332 262h-451q-160 0 -243.5 -57.5t-83.5 -161.5q0 -117 96 -158l10 -4l1016 -606l46 48q28 30 73 112.5t45 154.5h147q0 -121 -48 -213t-132 -188l139 -82l-90 -135zM532 758q-12 0 -30.5 -2t-67.5 -16.5t-86 -39t-67.5 -80t-30.5 -128.5 q0 -162 82 -253.5t250 -91.5h712q47 0 91.5 10.5t64.5 20.5l20 10z" />
<glyph unicode="'" horiz-adv-x="425" d="M147 1450h115l-20 -352h-70z" />
<glyph unicode="(" horiz-adv-x="647" d="M590 1546v-160q-360 0 -361 -354v-762q0 -207 83 -279.5t278 -72.5v-158q-256 0 -388 122t-132 392v758q0 246 143.5 380t376.5 134z" />
<glyph unicode=")" horiz-adv-x="647" d="M57 1386v160q231 0 373.5 -134t142.5 -380v-758q0 -270 -131 -392t-385 -122v158q195 0 276 72.5t81 279.5v762q-1 354 -357 354z" />
<glyph unicode="*" horiz-adv-x="712" d="M385 1122q86 -20 180 -37q74 -12 74 -81q0 -29 -19.5 -51.5t-46.5 -22.5q-39 0 -73 41l-127 135l45 -168q12 -37 12 -49q0 -35 -22.5 -58.5t-51.5 -23.5q-27 0 -48 21.5t-21 56.5q0 16 8 41q14 51 55 172q-14 -16 -125 -135q-35 -41 -73 -41q-29 0 -51.5 23.5t-22.5 49.5 q0 53 82 78q37 12 77 23l67 17q28 7 34 9l-29 6l-69 15l-80 16q-37 8 -59.5 29.5t-22.5 44.5q0 27 21.5 50.5t47.5 23.5q37 0 74 -37l131 -131l-57 176q0 6 -4 17t-4 16q0 35 23.5 58.5t50 23.5t48 -22t21.5 -56q0 -20 -4 -37q-23 -92 -53 -176q55 72 119 139q31 33 69 33 q27 0 50.5 -22.5t23.5 -47.5q0 -57 -78 -74z" />
<glyph unicode="+" horiz-adv-x="958" d="M111 668h295v295h135v-295h299v-136h-299v-299h-135v299h-295v136z" />
<glyph unicode="," horiz-adv-x="380" d="M123 0v160h160v-266q0 -74 -58 -111h-78q57 43 58 111v106h-82z" />
<glyph unicode="-" horiz-adv-x="956" d="M82 1235h795v-80h-795v80z" />
<glyph unicode="." horiz-adv-x="380" d="M123 0v160h160v-160h-160z" />
<glyph unicode="/" horiz-adv-x="647" d="M631 1491l-455 -1675h-160l455 1675h160z" />
<glyph unicode="0" horiz-adv-x="1867" d="M1622 942q0 209 -77 280.5t-290 71.5h-622q-207 0 -293 -74.5t-86 -277.5v-455q0 -201 83 -272.5t296 -71.5h622q223 0 295 68t72 276v455zM1769 487q0 -154 -25.5 -248t-90 -147t-155.5 -72.5t-241 -19.5h-622q-291 0 -410 107.5t-119 379.5v443q0 279 116 393.5 t413 114.5h622q274 0 393 -105.5t119 -402.5v-443z" />
<glyph unicode="1" d="M1073 0h-160v1274l-385 -377l-102 98l422 426h225v-1421z" />
<glyph unicode="2" d="M1659 143v-143h-1548v266q0 195 129 302.5t395 107.5h512q209 0 286.5 61.5t77.5 220.5q0 190 -73.5 263t-292.5 73h-512q-199 0 -274.5 -62.5t-75.5 -191.5h-160q0 205 126 301.5t386 96.5h512q297 0 404.5 -102.5t107.5 -377.5q0 -236 -105.5 -331t-408.5 -95h-512 q-201 0 -288 -73.5t-87 -192.5v-123h1401z" />
<glyph unicode="3" d="M739 664v143h441q164 0 239.5 49t75.5 188q0 111 -80 172.5t-237 61.5h-547q-158 0 -245 -66.5t-87 -199.5h-152q0 43 4.5 78.5t31 102.5t72.5 112t143.5 80.5t232.5 35.5h516q496 0 495 -352q0 -61 -11 -112.5t-28.5 -84t-39 -57t-43 -38t-39 -21.5t-27.5 -11l-12 -4 l20 -4q20 -6 50 -22.5t60 -47t50 -95t20 -154.5q0 -233 -132 -325.5t-363 -92.5h-514q-250 0 -368 97.5t-118 303.5h148q10 -258 338 -258h547q174 0 244.5 60.5t70.5 214.5q0 84 -17.5 134t-62.5 74.5t-94 31t-141 6.5h-441z" />
<glyph unicode="4" d="M1470 1421v-970h191v-144h-191v-307h-147v307h-1188v148l1176 966h159zM1323 451v802l-973 -802h973z" />
<glyph unicode="5" d="M1655 458.5q0 -243.5 -124 -351t-403 -107.5h-510q-516 0 -516 401h148q0 -131 85 -194.5t283 -63.5h506q217 0 300 74t83 242q0 164 -88 242.5t-295 78.5h-626q-100 0 -148.5 -26.5t-75.5 -98.5h-147v766h1493v-143h-1346v-461q23 39 78.5 73t128.5 34h643 q281 0 406 -111t125 -354.5z" />
<glyph unicode="6" d="M1659 1032h-148q-6 129 -88 195.5t-278 66.5h-512q-199 0 -283 -67.5t-84 -206.5v-330q92 143 352 144h525q283 0 403.5 -88.5t120.5 -280.5v-64q0 -215 -125 -318t-407 -103h-494q-522 0 -522 409v631q0 213 121.5 315.5t394.5 102.5h508q516 0 516 -406zM1143 690h-500 q-123 0 -200.5 -17.5t-114.5 -55t-49.5 -80.5t-12.5 -113q0 -66 12.5 -113t47 -93t112.5 -70.5t195 -24.5h512q211 0 293 61.5t82 175.5v52q0 66 -14.5 111.5t-52.5 85.5t-115.5 60.5t-194.5 20.5z" />
<glyph unicode="7" d="M45 1421h1694v-137l-1280 -1284h-207l1276 1278h-1483v143z" />
<glyph unicode="8" d="M643 659q-205 0 -287 -71.5t-82 -198.5q0 -129 85 -197.5t284 -68.5h522q207 0 287 69.5t80 200.5q0 141 -76 203.5t-291 62.5h-522zM643 1294q-197 0 -268.5 -65.5t-71.5 -194.5q0 -121 70.5 -176t269.5 -55h522q203 0 272.5 52t69.5 179q0 133 -78.5 196.5t-263.5 63.5 h-522zM1167 1438q266 0 377 -99.5t111 -318.5q0 -262 -246 -291q117 -18 193.5 -104t76.5 -232q0 -414 -512 -413h-524q-266 0 -391 101t-125 308q0 276 274 340q-106 6 -175.5 75.5t-69.5 215.5q0 217 112.5 317.5t374.5 100.5h524z" />
<glyph unicode="9" d="M129 385h147q6 -125 87 -183.5t282 -58.5h510q207 0 287 58.5t80 195.5v330q-92 -143 -353 -143h-524q-283 0 -404.5 89t-121.5 281v62q0 217 125 319.5t409 102.5h494q522 0 522 -410v-631q0 -209 -121 -303t-395 -94h-506q-262 0 -390 91t-128 294zM1147 1294h-502 q-225 0 -302 -69.5t-77 -206.5v-53q0 -115 83 -176.5t294 -61.5h512q119 0 194.5 21.5t111.5 66.5t48.5 93t12.5 120q0 133 -87 199.5t-288 66.5z" />
<glyph unicode=":" horiz-adv-x="380" d="M123 745v160h160v-160h-160zM123 0v160h160v-160h-160z" />
<glyph unicode=";" horiz-adv-x="380" d="M123 745v160h160v-160h-160zM123 0v160h160v-266q0 -74 -58 -111h-78q57 43 58 111v106h-82z" />
<glyph unicode="&#x3c;" horiz-adv-x="757" d="M66 627l585 397v-160l-348 -237l348 -230v-155z" />
<glyph unicode="=" horiz-adv-x="888" d="M111 498h651v-136h-651v136zM111 838h651v-136h-651v136z" />
<glyph unicode="&#x3e;" horiz-adv-x="757" d="M692 627l-586 -385v155l349 230l-349 237v160z" />
<glyph unicode="?" horiz-adv-x="1802" d="M684 0v160h160v-160h-160zM844 344h-160v139q0 311 365 312q119 0 194.5 7t146 30.5t104.5 72.5t34 127q0 150 -75 206t-288 56h-559q-199 0 -276.5 -65.5t-77.5 -196.5h-162q0 406 504 406h569q287 0 406 -95.5t119 -310.5q0 -221 -153 -301t-486 -80q-113 0 -159 -44 t-46 -140v-123z" />
<glyph unicode="@" horiz-adv-x="1335" d="M651 1085q-104 0 -166.5 -72.5t-62.5 -164.5q0 -82 51 -141.5t141 -59.5q104 0 163 69.5t59 160.5q0 84 -49.5 146t-135.5 62zM672 1389q-244 0 -380 -152t-136 -356q0 -203 136 -353.5t380 -150.5q102 0 200.5 34.5t135.5 84.5l45 -58q-39 -49 -152 -90t-237 -41 q-186 0 -322.5 85t-200 211t-63.5 273.5t65.5 277.5t203.5 217t325 87q94 0 189 -30.5t186.5 -94t148.5 -180.5t57 -268q0 -125 -57 -216t-188 -91q-53 0 -87 27.5t-42.5 52t-14.5 61.5q-4 -16 -18.5 -36.5t-42 -46.5t-77.5 -42t-116 -16q-125 0 -195.5 78.5t-70.5 187.5 q0 121 85 216t226 95q39 0 73 -8t57.5 -21.5t42 -30t28.5 -32.5t17.5 -30.5t11.5 -24.5l4 -9l24 144h66l-43 -334q-6 -49 -6 -51q0 -111 82 -111t127 75t45 171q0 236 -154.5 366t-357.5 130z" />
<glyph unicode="A" horiz-adv-x="1732" d="M180 0h-164l738 1421h225l737 -1421h-172l-182 356h-1000zM442 500h844l-422 819z" />
<glyph unicode="B" horiz-adv-x="1822" d="M274 1278v-463h967q154 0 222.5 48t68.5 177q0 121 -67.5 179.5t-223.5 58.5h-967zM127 0v1421h1057q254 0 374.5 -90t120.5 -274q0 -145 -54 -216t-124 -91q25 -6 55.5 -22.5t70.5 -51.5t66.5 -102.5t26.5 -155.5q0 -229 -121.5 -323.5t-377.5 -94.5h-1094zM274 672 v-529h1004q147 0 221 65.5t74 209.5q0 137 -78 195.5t-229 58.5h-992z" />
<glyph unicode="C" horiz-adv-x="1867" d="M1602 406h147q0 -205 -120 -305.5t-396 -100.5h-623q-285 0 -404.5 116.5t-119.5 391.5v410q0 283 120 401.5t404 118.5h623q516 0 516 -406h-147q0 129 -83 195.5t-284 66.5h-623q-217 0 -298 -79.5t-81 -296.5v-410q0 -209 82 -287t297 -78h623q199 0 283 63t84 200z " />
<glyph unicode="D" horiz-adv-x="1847" d="M287 143h962q215 0 279.5 82t64.5 303v377q0 217 -69.5 295t-276.5 78h-960v-1135zM139 1421h1098q287 0 395.5 -108.5t108.5 -407.5v-377q0 -283 -108.5 -405.5t-395.5 -122.5h-1098v1421z" />
<glyph unicode="E" horiz-adv-x="1511" d="M123 0v1421h1259v-143h-1112v-471h1084v-143h-1084v-521h1112v-143h-1259z" />
<glyph unicode="F" horiz-adv-x="1511" d="M123 1421h1259v-143h-1112v-471h1084v-143h-1084v-664h-147v1421z" />
<glyph unicode="G" horiz-adv-x="1847" d="M911 676h852v-111q0 -332 -104.5 -448.5t-409.5 -116.5h-626q-293 0 -409 112.5t-116 374.5v431q0 283 120 401.5t405 118.5h626q256 0 385 -103.5t129 -302.5h-153q0 129 -82 195.5t-281 66.5h-626q-219 0 -297 -79.5t-78 -296.5v-431q0 -197 82 -270.5t293 -73.5h626 q209 0 286 65.5t77 276.5v47h-699v144z" />
<glyph unicode="H" horiz-adv-x="1802" d="M287 662v-662h-148v1421h148v-616h1261v616h148v-1421h-148v662h-1261z" />
<glyph unicode="I" horiz-adv-x="577" d="M356 1421v-1421h-147v1421h147z" />
<glyph unicode="J" horiz-adv-x="1601" d="M78 475h147v-69q0 -131 86 -197t291 -66h383q201 0 288 70t87 221v987h147v-913q0 -272 -111.5 -390t-408.5 -118h-385q-524 0 -524 369v106z" />
<glyph unicode="K" horiz-adv-x="1693" d="M250 670v-670h-148v1421h148v-608h237l899 608h259l-1004 -678l1028 -743h-258l-917 670h-244z" />
<glyph unicode="L" horiz-adv-x="1466" d="M287 1421v-1278h1071v-143h-1219v1421h148z" />
<glyph unicode="M" horiz-adv-x="2310" d="M119 1421h315l721 -1212l717 1212h315v-1421h-147v1307h-82l-766 -1307h-76l-766 1307h-84v-1307h-147v1421z" />
<glyph unicode="N" horiz-adv-x="1802" d="M119 1421h327l1094 -1274v1274h148v-1421h-213l-1127 1311h-82v-1311h-147v1421z" />
<glyph unicode="O" horiz-adv-x="1867" d="M1622 942q0 209 -77 280.5t-290 71.5h-622q-207 0 -293 -74.5t-86 -277.5v-455q0 -201 83 -272.5t296 -71.5h622q223 0 295 68t72 276v455zM1769 487q0 -154 -25.5 -248t-90 -147t-155.5 -72.5t-241 -19.5h-622q-291 0 -410 107.5t-119 379.5v443q0 279 116 393.5 t413 114.5h622q274 0 393 -105.5t119 -402.5v-443z" />
<glyph unicode="P" horiz-adv-x="1667" d="M274 588v-588h-147v1421h958q266 0 383 -100t117 -338q0 -231 -110.5 -313t-387.5 -82h-813zM274 1278v-547h871q164 0 228.5 54.5t64.5 211.5q0 160 -67.5 220.5t-240.5 60.5h-856z" />
<glyph unicode="Q" horiz-adv-x="1867" d="M987 496l90 118l516 -335q29 70 29 208v443q0 123 -16.5 193.5t-63.5 109.5t-109.5 50t-177.5 11h-622q-219 0 -301 -80.5t-82 -283.5v-443q0 -197 84 -270.5t299 -73.5h618q176 0 232 33zM1724 201l115 -78l-82 -123l-119 82q-59 -47 -142 -64.5t-239 -17.5h-626 q-279 0 -404 106.5t-125 380.5v443q0 276 115 392t416 116h622q270 0 392 -106.5t122 -401.5v-443q0 -173 -45 -286z" />
<glyph unicode="R" horiz-adv-x="1761" d="M279 1278v-549h921q147 0 225 71.5t78 239.5q0 104 -80 171t-213 67h-931zM279 586v-586h-148v1421h1024q258 0 377 -109.5t119 -297.5q0 -100 -33 -172t-70 -102.5t-98 -67.5q76 -16 127 -102.5t51 -235.5v-334h-147v350q0 131 -53.5 183.5t-170.5 52.5h-978z" />
<glyph unicode="S" horiz-adv-x="1888" d="M111 1020q0 213 110.5 307t351.5 94h717q483 0 484 -401h-148q0 123 -84 190.5t-282 67.5h-685q-188 0 -252.5 -60.5t-64.5 -197.5q0 -123 71.5 -170t293.5 -47h634q281 0 405 -90t124 -312q0 -213 -110.5 -307t-356.5 -94h-733q-217 0 -340 102.5t-123 303.5h147 q0 -127 83 -195t282 -68h672q168 0 249.5 62.5t81.5 200.5q0 139 -72.5 196t-269.5 57h-714q-274 0 -372.5 85.5t-98.5 275.5z" />
<glyph unicode="T" horiz-adv-x="1622" d="M45 1421h1532v-143h-694v-1278h-148v1278h-690v143z" />
<glyph unicode="U" horiz-adv-x="1888" d="M123 1421h147v-991q0 -152 82 -219.5t299 -67.5h625q190 0 274 73t84 222v983h148v-929q0 -287 -121 -389.5t-387 -102.5h-623q-281 0 -404.5 105.5t-123.5 381.5v934z" />
<glyph unicode="V" horiz-adv-x="1724" d="M1528 1421h172l-766 -1421h-158l-762 1421h172l656 -1261h30z" />
<glyph unicode="W" horiz-adv-x="2621" d="M1212 1421h168l496 -1269h33l504 1269h163l-581 -1421h-209l-492 1257l-487 -1257h-209l-582 1421h164l504 -1269h33z" />
<glyph unicode="X" horiz-adv-x="1757" d="M1446 1421h196l-667 -667l754 -754h-197l-684 684l-684 -684h-197l754 754l-658 667h187l598 -602z" />
<glyph unicode="Y" horiz-adv-x="1646" d="M1448 1421h194l-747 -743v-678h-147v680l-748 741h195l626 -626z" />
<glyph unicode="Z" horiz-adv-x="1622" d="M98 1421h1387v-110l-1151 -1168h1182v-143h-1418v115l1159 1163h-1159v143z" />
<glyph unicode="[" horiz-adv-x="536" d="M131 1561h287v-78h-148v-1635h158v-77h-297v1790z" />
<glyph unicode="\" horiz-adv-x="647" d="M29 1491h159l455 -1675h-156z" />
<glyph unicode="]" horiz-adv-x="536" d="M397 1561v-1790h-297v79h158v1633h-147v78h286z" />
<glyph unicode="^" horiz-adv-x="802" d="M57 1081l299 287h82l299 -287h-65l-275 201l-274 -201h-66z" />
<glyph unicode="_" horiz-adv-x="802" d="M4 -4h795v-78h-795v78z" />
<glyph unicode="`" horiz-adv-x="577" d="M160 1491l315 -279l-57 -49l-344 230z" />
<glyph unicode="a" horiz-adv-x="1456" d="M98 381q0 111 78 174t238 63h590q152 0 186 -73l2 -6v141q0 92 -62.5 150.5t-187.5 58.5h-391q-86 0 -139.5 -12.5t-76 -39t-28.5 -51t-6 -65.5h-151q0 57 9 98t41.5 90t111.5 76t202 27h444q381 0 381 -357v-655h-147v82q-6 -8 -19.5 -22.5t-59.5 -37t-101 -22.5h-574 q-340 0 -340 258v123zM467 496q-131 0 -176 -35t-45 -113v-74q0 -74 48 -112.5t173 -38.5h500q225 0 225 188q0 184 -225 185h-500z" />
<glyph unicode="b" horiz-adv-x="1490" d="M106 1421h148v-518q4 8 13 17.5t34 28t55.5 31.5t81.5 24.5t111 11.5h397q213 0 321.5 -104.5t108.5 -293.5v-221q0 -397 -426 -397h-401q-205 0 -295 109v-109h-148v1421zM254 399q0 -123 80 -199.5t235 -76.5h324q176 0 256 65.5t80 208.5v221q0 274 -336 275h-328 q-156 0 -233.5 -75t-77.5 -197v-222z" />
<glyph unicode="c" horiz-adv-x="1466" d="M1229 356h147q0 -35 -5 -69.5t-29.5 -90t-66.5 -96.5t-127 -70.5t-198 -29.5h-454q-207 0 -308.5 97.5t-101.5 275.5v254q0 172 107.5 280.5t314.5 108.5h442q111 0 195 -30t126 -71t67.5 -96t31.5 -91t6 -69h-147q0 33 -8.5 65t-33 74t-86 68.5t-151.5 26.5h-442 q-131 0 -203 -66.5t-72 -199.5v-254q0 -119 77 -184.5t190 -65.5h448q90 0 150.5 24.5t86 65.5t35 74.5t9.5 68.5z" />
<glyph unicode="d" horiz-adv-x="1490" d="M1368 0h-147v98q-12 -10 -36 -26.5t-99.5 -44t-157.5 -27.5h-400q-430 0 -430 399v224q0 180 108.5 286.5t321.5 106.5h398q57 0 108 -11.5t82 -24.5t56.5 -31.5t35 -29t13.5 -16.5v518h147v-1421zM1221 399v222q0 125 -79 198.5t-237 73.5h-327q-174 0 -253 -69.5 t-79 -205.5v-221q0 -141 81 -207.5t251 -66.5h327q158 0 237 75.5t79 200.5z" />
<glyph unicode="e" horiz-adv-x="1490" d="M1245 618q0 127 -72.5 201t-199.5 74h-463q-117 0 -188.5 -76t-71.5 -199h995zM1393 496h-1143v-99q0 -274 280 -274h480q117 0 176 55t59 146h148q0 -131 -84 -227.5t-275 -96.5h-497q-434 0 -435 377v266q0 150 116 261.5t314 111.5h426q207 0 321 -102.5t114 -254.5 v-163z" />
<glyph unicode="f" horiz-adv-x="802" d="M164 897h-127v123h127q0 227 73.5 314t251.5 87h252v-123h-213q-119 0 -168 -53t-49 -225h434v-123h-434v-897h-147v897z" />
<glyph unicode="g" horiz-adv-x="1511" d="M1245 1012h148v-1118q0 -328 -430 -328h-410q-178 0 -283.5 73.5t-105.5 196.5h160q0 -61 61 -104t182 -43h385q141 0 217 56t76 136v238q-16 -41 -89 -80t-193 -39h-422q-426 0 -426 373v258q0 381 413 381h426q92 0 165 -27t94.5 -47t31.5 -35v109zM1245 397v224 q0 125 -76.5 196.5t-234.5 71.5h-336q-180 0 -258 -64.5t-78 -206.5v-221q0 -143 83 -208.5t253 -65.5h336q154 0 232.5 75.5t78.5 198.5z" />
<glyph unicode="h" horiz-adv-x="1490" d="M111 1421h147v-553l4 9q4 8 12.5 20t22.5 27.5t36.5 31t52.5 27.5t73 20.5t94 8.5h393q225 0 331.5 -110.5t106.5 -287.5v-614h-147v614q0 131 -80 203t-211 72h-393q-135 0 -215 -72t-80 -203v-614h-147v1421z" />
<glyph unicode="i" horiz-adv-x="466" d="M307 1012v-1012h-147v1012h147zM160 1421h147v-147h-147v147z" />
<glyph unicode="j" horiz-adv-x="577" d="M225 1012h148v-1176q0 -72 -29 -125t-67.5 -79.5t-91 -43t-85 -19.5t-63.5 -3v147q188 0 188 172v1127zM225 1421h148v-147h-148v147z" />
<glyph unicode="k" horiz-adv-x="1269" d="M119 0v1421h147v-794h168l524 385h238l-641 -453l692 -559h-213l-610 504h-158v-504h-147z" />
<glyph unicode="l" horiz-adv-x="491" d="M184 0v1421h148v-1421h-148z" />
<glyph unicode="m" horiz-adv-x="2308" d="M246 1012v-154l13 23q7 12 33.5 37.5t59.5 44t90.5 34t126.5 15.5h201q125 0 211 -34t120 -73t58 -94q74 201 381 201h229q207 0 325 -101.5t118 -251.5v-659h-148v631q0 123 -86 190.5t-245 67.5h-152q-352 0 -352 -279v-610h-148v614q0 133 -90 204t-237 71h-160 q-174 0 -261 -81t-87 -185v-623h-148v1012h148z" />
<glyph unicode="n" horiz-adv-x="1511" d="M266 1012v-162q29 74 104.5 118t190.5 44h389q233 0 338 -118t105 -304v-590h-148v610q0 131 -81 205t-214 74h-389q-131 0 -213 -75t-82 -204v-610h-147v1012h147z" />
<glyph unicode="o" horiz-adv-x="1466" d="M90 618q0 180 107.5 289t334.5 109h406q236 0 339 -110.5t103 -287.5v-221q0 -176 -106.5 -286.5t-337.5 -110.5h-404q-442 0 -442 397v221zM238 397q0 -274 305 -274h383q307 0 307 274v221q0 133 -79 204t-226 71h-385q-154 0 -229.5 -64.5t-75.5 -210.5v-221z" />
<glyph unicode="p" horiz-adv-x="1466" d="M106 1012h148v-109q10 16 31.5 35.5t91 46.5t160.5 27h409q227 0 328.5 -109.5t101.5 -288.5v-221q0 -182 -106.5 -287.5t-323.5 -105.5h-397q-94 0 -167 26.5t-95.5 47t-32.5 35.5v-523h-148v1426zM254 614v-2v-219q0 -121 77 -195.5t232 -74.5h330q170 0 253 63.5 t83 206.5v221q0 274 -336 275h-328q-156 0 -233.5 -76t-77.5 -199z" />
<glyph unicode="q" horiz-adv-x="1490" d="M1233 1012h147v-1426h-147v510q-10 -14 -31.5 -30.5t-95.5 -41t-168 -24.5h-397q-213 0 -321.5 101.5t-108.5 293.5v221q0 186 108.5 291t321.5 105h405q90 0 162 -28t98 -54l27 -29v111zM1233 616q0 123 -79 198t-232 75h-328q-170 0 -253 -62.5t-83 -212.5v-221 q0 -270 336 -270h328q152 0 231.5 76.5t79.5 195.5v221z" />
<glyph unicode="r" horiz-adv-x="1394" d="M270 1012v-129q4 8 10.5 19t27 31.5t48 37t76.5 29t109 12.5h286q113 0 196 -32t126 -76t69.5 -105.5t32.5 -105.5t6 -91h-147q0 29 -4 57.5t-21.5 72.5t-47 77t-88 56.5t-136.5 23.5h-262q-119 0 -200 -72t-81 -166v-651h-147v1012h147z" />
<glyph unicode="s" horiz-adv-x="1490" d="M102 324h148v-58q0 -72 45 -107.5t190 -35.5h519q111 0 170 36t59 103v45q0 68 -52.5 106t-144.5 38h-590q-344 0 -344 262v41q0 113 91.5 187.5t269.5 74.5h479q438 0 438 -250v-70h-147v66q0 14 -4 27.5t-20.5 34t-45 34.5t-85 24.5t-132.5 10.5h-508q-188 0 -188 -139 v-41q0 -139 188 -140h590q352 0 352 -266v-45q0 -109 -96 -185.5t-274 -76.5h-564q-197 0 -270.5 68.5t-73.5 181.5v74z" />
<glyph unicode="t" horiz-adv-x="1200" d="M156 1212h147v-196h764v-123h-764v-533q0 -119 59.5 -178t157.5 -59h197q98 0 161.5 23.5t91 70.5t36 89t8.5 104h147q0 -410 -430 -410h-211q-174 0 -269 96.5t-95 286.5v510h-127v123h127v196z" />
<glyph unicode="u" horiz-adv-x="1490" d="M111 1012h147v-627q0 -129 78 -195.5t217 -66.5h397q121 0 208 65.5t87 184.5v639h148v-1012h-148v123q-109 -123 -295 -123h-397q-442 0 -442 397v615z" />
<glyph unicode="v" horiz-adv-x="1290" d="M1122 1012h164l-559 -1012h-158l-559 1012h164l459 -852h31z" />
<glyph unicode="w" horiz-adv-x="1857" d="M125 1012l338 -852h35l329 852h181l329 -852h35l338 852h158l-412 -1012h-192l-346 891l-347 -891h-192l-412 1012h158z" />
<glyph unicode="x" horiz-adv-x="1304" d="M90 1012h180l381 -373l373 373h180l-467 -463l549 -549h-184l-455 455l-459 -455h-176l545 549z" />
<glyph unicode="y" horiz-adv-x="1198" d="M4 1012h154l471 -869h28l373 869h154l-508 -1145q-49 -113 -94 -172.5t-123 -94t-201 -34.5h-49v123h86q100 0 161.5 61.5t139.5 249.5h-37z" />
<glyph unicode="z" horiz-adv-x="1290" d="M90 1012h1071v-111l-856 -778h869v-123h-1092v115l860 774h-852v123z" />
<glyph unicode="{" horiz-adv-x="602" d="M508 1425q-104 0 -150.5 -49t-46.5 -147v-398q0 -121 -112 -194l-11 -6q14 -10 35 -28.5t54.5 -71t33.5 -101.5v-397q0 -98 47.5 -145.5t149.5 -47.5v-114h-12q-143 0 -221 78.5t-78 228.5v397q0 57 -45.5 118.5t-83.5 82.5q45 29 87 83t42 117v398q0 311 311 311v-115z " />
<glyph unicode="|" horiz-adv-x="354" d="M119 1516h114v-1790h-114v1790z" />
<glyph unicode="}" horiz-adv-x="602" d="M98 1425q-4 49 -4 82l4 33q307 0 308 -311v-398q0 -61 48 -121.5t85 -78.5q-133 -94 -133 -201v-397q0 -147 -80 -227t-220 -80h-8v114q100 0 146.5 47t46.5 146v397q0 102 117 195l6 6q-14 8 -35 22.5t-54.5 66.5t-33.5 111v398q0 98 -44.5 147t-148.5 49z" />
<glyph unicode="~" horiz-adv-x="1134" d="M307 709h-139q2 8 6 22t23.5 50t49 63.5t87 50.5t129.5 23q90 0 170 -55.5t133 -55.5t85 25.5t38 52.5l4 24h135q-2 -8 -5 -22.5t-21.5 -51t-45 -64.5t-81 -50.5t-121.5 -22.5q-84 0 -165 54.5t-167 54.5q-43 0 -71.5 -24.5t-35.5 -49.5z" />
<glyph unicode="&#xa6;" horiz-adv-x="356" d="M119 532h114v-753h-114v753zM119 1477h114v-754h-114v754z" />
<glyph unicode="&#xa7;" horiz-adv-x="1556" d="M1130 426q127 0 180.5 47t53.5 137v86q0 68 -44 116t-112 48h-843q-184 0 -185 -205v-73q0 -74 38 -115t114 -41h798zM1376 1106h-147q0 104 -39 150.5t-146 46.5h-606q-164 0 -164 -160t152 -160h762q129 0 212 -70.5t83 -179.5v-143q0 -98 -44 -169t-132 -85 q8 -4 19 -14.5t30.5 -52.5t19.5 -97v-70q0 -113 -83 -183.5t-220 -70.5h-618q-143 0 -225.5 89.5t-82.5 234.5h148q0 -201 168 -201h635q156 0 155 168q0 70 -43 115t-112 45h-774q-117 0 -194 72.5t-77 177.5v115q0 115 51.5 187.5t106.5 90.5q-63 20 -64 152v69 q0 119 78 190.5t230 71.5h598q166 0 244.5 -86t78.5 -233z" />
<glyph unicode="&#xa9;" horiz-adv-x="1458" d="M1057 856h90q0 -100 -60.5 -150.5t-197.5 -50.5h-311q-143 0 -203 57.5t-60 196.5v205q0 141 59.5 199.5t203.5 58.5h311q258 0 258 -201h-90q0 61 -33 86t-133 25h-318q-109 0 -138 -28.5t-29 -135.5v-207q0 -106 31.5 -136t140.5 -30h311q102 0 135 21.5t33 89.5z M1266 1198q0 164 -59.5 220.5t-225.5 56.5h-485q-160 0 -227.5 -59.5t-67.5 -217.5v-354q0 -156 65.5 -213.5t229.5 -57.5h485q174 0 229.5 53.5t55.5 217.5v354zM1382 844q0 -231 -86 -306t-313 -75h-487q-227 0 -319.5 84t-92.5 297v346q0 217 90 306t322 89h487 q213 0 306 -83t93 -312v-346z" />
<glyph unicode="&#xaa;" horiz-adv-x="1456" d="M98 381q0 111 78 174t238 63h590q152 0 186 -73l2 -6v141q0 92 -62.5 150.5t-187.5 58.5h-391q-86 0 -139.5 -12.5t-76 -39t-28.5 -51t-6 -65.5h-151q0 57 9 98t41.5 90t111.5 76t202 27h444q381 0 381 -357v-655h-147v82q-6 -8 -19.5 -22.5t-59.5 -37t-101 -22.5h-574 q-340 0 -340 258v123zM467 496q-131 0 -176 -35t-45 -113v-74q0 -74 48 -112.5t173 -38.5h500q225 0 225 188q0 184 -225 185h-500z" />
<glyph unicode="&#xab;" horiz-adv-x="1134" d="M242 569l348 -344l-70 -69l-414 413l422 422l66 -69zM610 569l348 -344l-69 -69l-414 413l422 422l66 -69z" />
<glyph unicode="&#xad;" horiz-adv-x="956" d="M82 1235h795v-80h-795v80z" />
<glyph unicode="&#xae;" horiz-adv-x="1466" d="M1262 1198q0 164 -59.5 220.5t-225.5 56.5h-485q-160 0 -227.5 -59.5t-67.5 -217.5v-354q0 -156 65.5 -213.5t229.5 -57.5h485q174 0 229.5 53.5t55.5 217.5v354zM1378 844q0 -231 -86 -306t-313 -75h-487q-227 0 -319.5 84t-92.5 297v346q0 217 90 306t322 89h487 q213 0 306 -83t93 -312v-346zM444 1282v-254h443q74 0 104.5 31t30.5 117q0 106 -129 106h-449zM444 938v-283h-90v717h512q127 0 186.5 -58.5t59.5 -152.5q0 -72 -25.5 -107.5t-72.5 -62.5q39 -10 68.5 -53t29.5 -117v-166h-90v166q0 117 -115 117h-463z" />
<glyph unicode="&#xb0;" horiz-adv-x="577" d="M106 1245q0 51 33 85t103 34h110q70 0 102.5 -34t32.5 -85v-69q0 -49 -33.5 -83t-101.5 -34h-110q-68 0 -102 33.5t-34 83.5v69zM152 1176q0 -72 90 -72h110q90 0 90 72v69q0 74 -90 74h-110q-90 0 -90 -74v-69z" />
<glyph unicode="&#xb1;" horiz-adv-x="913" d="M111 451h651v-148h-651v148zM74 934h295v295h135v-295h299v-139h-299v-295h-135v295h-295v139z" />
<glyph unicode="&#xb2;" d="M1659 143v-143h-1548v266q0 195 129 302.5t395 107.5h512q209 0 286.5 61.5t77.5 220.5q0 190 -73.5 263t-292.5 73h-512q-199 0 -274.5 -62.5t-75.5 -191.5h-160q0 205 126 301.5t386 96.5h512q297 0 404.5 -102.5t107.5 -377.5q0 -236 -105.5 -331t-408.5 -95h-512 q-201 0 -288 -73.5t-87 -192.5v-123h1401z" />
<glyph unicode="&#xb3;" d="M739 664v143h441q164 0 239.5 49t75.5 188q0 111 -80 172.5t-237 61.5h-547q-158 0 -245 -66.5t-87 -199.5h-152q0 43 4.5 78.5t31 102.5t72.5 112t143.5 80.5t232.5 35.5h516q496 0 495 -352q0 -61 -11 -112.5t-28.5 -84t-39 -57t-43 -38t-39 -21.5t-27.5 -11l-12 -4 l20 -4q20 -6 50 -22.5t60 -47t50 -95t20 -154.5q0 -233 -132 -325.5t-363 -92.5h-514q-250 0 -368 97.5t-118 303.5h148q10 -258 338 -258h547q174 0 244.5 60.5t70.5 214.5q0 84 -17.5 134t-62.5 74.5t-94 31t-141 6.5h-441z" />
<glyph unicode="&#xb6;" horiz-adv-x="1466" d="M1049 -115h-160v725h-311q-496 0 -496 394q0 420 500 419h467v-1538zM1339 -115h-147v1538h147v-1538z" />
<glyph unicode="&#xb7;" horiz-adv-x="401" d="M123 618v160h160v-160h-160z" />
<glyph unicode="&#x2219;" horiz-adv-x="401" d="M123 618v160h160v-160h-160z" />
<glyph unicode="&#xb9;" d="M1073 0h-160v1274l-385 -377l-102 98l422 426h225v-1421z" />
<glyph unicode="&#xba;" horiz-adv-x="1466" d="M90 618q0 180 107.5 289t334.5 109h406q236 0 339 -110.5t103 -287.5v-221q0 -176 -106.5 -286.5t-337.5 -110.5h-404q-442 0 -442 397v221zM238 397q0 -274 305 -274h383q307 0 307 274v221q0 133 -79 204t-226 71h-385q-154 0 -229.5 -64.5t-75.5 -210.5v-221z" />
<glyph unicode="&#xbb;" horiz-adv-x="1134" d="M516 569l-352 357l65 65l422 -422l-409 -409l-70 65zM897 569l-356 357l69 65l422 -422l-414 -409l-65 65z" />
<glyph unicode="&#xc0;" horiz-adv-x="1732" d="M609 1888l315 -279l-57 -49l-344 230zM180 0h-164l738 1421h225l737 -1421h-172l-182 356h-1000zM442 500h844l-422 819z" />
<glyph unicode="&#xc2;" horiz-adv-x="1732" d="M526 1560l299 287h82l299 -287h-65l-275 201l-274 -201h-66zM180 0h-164l738 1421h225l737 -1421h-172l-182 356h-1000zM442 500h844l-422 819z" />
<glyph unicode="&#xc3;" horiz-adv-x="1732" d="M575 1571h-139q2 8 6 22t23.5 50t49 63.5t87 50.5t129.5 23q90 0 170 -55.5t133 -55.5t85 25.5t38 52.5l4 24h135q-2 -8 -5 -22.5t-21.5 -51t-45 -64.5t-81 -50.5t-121.5 -22.5q-84 0 -165 54.5t-167 54.5q-43 0 -71.5 -24.5t-35.5 -49.5zM180 0h-164l738 1421h225 l737 -1421h-172l-182 356h-1000zM442 500h844l-422 819z" />
<glyph unicode="&#xc5;" horiz-adv-x="1732" d="M675 1614q0 51 33 85t103 34h110q70 0 102.5 -34t32.5 -85v-69q0 -49 -33.5 -83t-101.5 -34h-110q-68 0 -102 33.5t-34 83.5v69zM721 1545q0 -72 90 -72h110q90 0 90 72v69q0 74 -90 74h-110q-90 0 -90 -74v-69zM180 0h-164l738 1421h225l737 -1421h-172l-182 356h-1000z M442 500h844l-422 819z" />
<glyph unicode="&#xc8;" horiz-adv-x="1511" d="M496 1888l315 -279l-57 -49l-344 230zM123 0v1421h1259v-143h-1112v-471h1084v-143h-1084v-521h1112v-143h-1259z" />
<glyph unicode="&#xca;" horiz-adv-x="1511" d="M413 1560l299 287h82l299 -287h-65l-275 201l-274 -201h-66zM123 0v1421h1259v-143h-1112v-471h1084v-143h-1084v-521h1112v-143h-1259z" />
<glyph unicode="&#xcc;" horiz-adv-x="577" d="M25 1888l315 -279l-57 -49l-344 230zM356 1421v-1421h-147v1421h147z" />
<glyph unicode="&#xce;" horiz-adv-x="577" d="M-58 1560l299 287h82l299 -287h-65l-275 201l-274 -201h-66zM356 1421v-1421h-147v1421h147z" />
<glyph unicode="&#xd1;" horiz-adv-x="1802" d="M612 1571h-139q2 8 6 22t23.5 50t49 63.5t87 50.5t129.5 23q90 0 170 -55.5t133 -55.5t85 25.5t38 52.5l4 24h135q-2 -8 -5 -22.5t-21.5 -51t-45 -64.5t-81 -50.5t-121.5 -22.5q-84 0 -165 54.5t-167 54.5q-43 0 -71.5 -24.5t-35.5 -49.5zM119 1421h327l1094 -1274v1274 h148v-1421h-213l-1127 1311h-82v-1311h-147v1421z" />
<glyph unicode="&#xd2;" horiz-adv-x="1867" d="M688 1888l315 -279l-57 -49l-344 230zM1622 942q0 209 -77 280.5t-290 71.5h-622q-207 0 -293 -74.5t-86 -277.5v-455q0 -201 83 -272.5t296 -71.5h622q223 0 295 68t72 276v455zM1769 487q0 -154 -25.5 -248t-90 -147t-155.5 -72.5t-241 -19.5h-622q-291 0 -410 107.5 t-119 379.5v443q0 279 116 393.5t413 114.5h622q274 0 393 -105.5t119 -402.5v-443z" />
<glyph unicode="&#xd4;" horiz-adv-x="1867" d="M606 1560l299 287h82l299 -287h-65l-275 201l-274 -201h-66zM1622 942q0 209 -77 280.5t-290 71.5h-622q-207 0 -293 -74.5t-86 -277.5v-455q0 -201 83 -272.5t296 -71.5h622q223 0 295 68t72 276v455zM1769 487q0 -154 -25.5 -248t-90 -147t-155.5 -72.5t-241 -19.5 h-622q-291 0 -410 107.5t-119 379.5v443q0 279 116 393.5t413 114.5h622q274 0 393 -105.5t119 -402.5v-443z" />
<glyph unicode="&#xd5;" horiz-adv-x="1867" d="M655 1571h-139q2 8 6 22t23.5 50t49 63.5t87 50.5t129.5 23q90 0 170 -55.5t133 -55.5t85 25.5t38 52.5l4 24h135q-2 -8 -5 -22.5t-21.5 -51t-45 -64.5t-81 -50.5t-121.5 -22.5q-84 0 -165 54.5t-167 54.5q-43 0 -71.5 -24.5t-35.5 -49.5zM1622 942q0 209 -77 280.5 t-290 71.5h-622q-207 0 -293 -74.5t-86 -277.5v-455q0 -201 83 -272.5t296 -71.5h622q223 0 295 68t72 276v455zM1769 487q0 -154 -25.5 -248t-90 -147t-155.5 -72.5t-241 -19.5h-622q-291 0 -410 107.5t-119 379.5v443q0 279 116 393.5t413 114.5h622q274 0 393 -105.5 t119 -402.5v-443z" />
<glyph unicode="&#xd9;" horiz-adv-x="1888" d="M695 1888l315 -279l-57 -49l-344 230zM123 1421h147v-991q0 -152 82 -219.5t299 -67.5h625q190 0 274 73t84 222v983h148v-929q0 -287 -121 -389.5t-387 -102.5h-623q-281 0 -404.5 105.5t-123.5 381.5v934z" />
<glyph unicode="&#xdb;" horiz-adv-x="1888" d="M612 1560l299 287h82l299 -287h-65l-275 201l-274 -201h-66zM123 1421h147v-991q0 -152 82 -219.5t299 -67.5h625q190 0 274 73t84 222v983h148v-929q0 -287 -121 -389.5t-387 -102.5h-623q-281 0 -404.5 105.5t-123.5 381.5v934z" />
<glyph unicode="&#xe0;" horiz-adv-x="1456" d="M479 1466l315 -279l-57 -49l-344 230zM98 381q0 111 78 174t238 63h590q152 0 186 -73l2 -6v141q0 92 -62.5 150.5t-187.5 58.5h-391q-86 0 -139.5 -12.5t-76 -39t-28.5 -51t-6 -65.5h-151q0 57 9 98t41.5 90t111.5 76t202 27h444q381 0 381 -357v-655h-147v82 q-6 -8 -19.5 -22.5t-59.5 -37t-101 -22.5h-574q-340 0 -340 258v123zM467 496q-131 0 -176 -35t-45 -113v-74q0 -74 48 -112.5t173 -38.5h500q225 0 225 188q0 184 -225 185h-500z" />
<glyph unicode="&#xe2;" horiz-adv-x="1456" d="M397 1138l299 287h82l299 -287h-65l-275 201l-274 -201h-66zM98 381q0 111 78 174t238 63h590q152 0 186 -73l2 -6v141q0 92 -62.5 150.5t-187.5 58.5h-391q-86 0 -139.5 -12.5t-76 -39t-28.5 -51t-6 -65.5h-151q0 57 9 98t41.5 90t111.5 76t202 27h444q381 0 381 -357 v-655h-147v82q-6 -8 -19.5 -22.5t-59.5 -37t-101 -22.5h-574q-340 0 -340 258v123zM467 496q-131 0 -176 -35t-45 -113v-74q0 -74 48 -112.5t173 -38.5h500q225 0 225 188q0 184 -225 185h-500z" />
<glyph unicode="&#xe3;" horiz-adv-x="1456" d="M446 1149h-139q2 8 6 22t23.5 50t49 63.5t87 50.5t129.5 23q90 0 170 -55.5t133 -55.5t85 25.5t38 52.5l4 24h135q-2 -8 -5 -22.5t-21.5 -51t-45 -64.5t-81 -50.5t-121.5 -22.5q-84 0 -165 54.5t-167 54.5q-43 0 -71.5 -24.5t-35.5 -49.5zM98 381q0 111 78 174t238 63 h590q152 0 186 -73l2 -6v141q0 92 -62.5 150.5t-187.5 58.5h-391q-86 0 -139.5 -12.5t-76 -39t-28.5 -51t-6 -65.5h-151q0 57 9 98t41.5 90t111.5 76t202 27h444q381 0 381 -357v-655h-147v82q-6 -8 -19.5 -22.5t-59.5 -37t-101 -22.5h-574q-340 0 -340 258v123zM467 496 q-131 0 -176 -35t-45 -113v-74q0 -74 48 -112.5t173 -38.5h500q225 0 225 188q0 184 -225 185h-500z" />
<glyph unicode="&#xe5;" horiz-adv-x="1456" d="M544 1325q0 51 33 85t103 34h110q70 0 102.5 -34t32.5 -85v-69q0 -49 -33.5 -83t-101.5 -34h-110q-68 0 -102 33.5t-34 83.5v69zM590 1256q0 -72 90 -72h110q90 0 90 72v69q0 74 -90 74h-110q-90 0 -90 -74v-69zM98 381q0 111 78 174t238 63h590q152 0 186 -73l2 -6v141 q0 92 -62.5 150.5t-187.5 58.5h-391q-86 0 -139.5 -12.5t-76 -39t-28.5 -51t-6 -65.5h-151q0 57 9 98t41.5 90t111.5 76t202 27h444q381 0 381 -357v-655h-147v82q-6 -8 -19.5 -22.5t-59.5 -37t-101 -22.5h-574q-340 0 -340 258v123zM467 496q-131 0 -176 -35t-45 -113v-74 q0 -74 48 -112.5t173 -38.5h500q225 0 225 188q0 184 -225 185h-500z" />
<glyph unicode="&#xe8;" horiz-adv-x="1490" d="M488 1466l315 -279l-57 -49l-344 230zM1245 618q0 127 -72.5 201t-199.5 74h-463q-117 0 -188.5 -76t-71.5 -199h995zM1393 496h-1143v-99q0 -274 280 -274h480q117 0 176 55t59 146h148q0 -131 -84 -227.5t-275 -96.5h-497q-434 0 -435 377v266q0 150 116 261.5 t314 111.5h426q207 0 321 -102.5t114 -254.5v-163z" />
<glyph unicode="&#xea;" horiz-adv-x="1490" d="M405 1138l299 287h82l299 -287h-65l-275 201l-274 -201h-66zM1245 618q0 127 -72.5 201t-199.5 74h-463q-117 0 -188.5 -76t-71.5 -199h995zM1393 496h-1143v-99q0 -274 280 -274h480q117 0 176 55t59 146h148q0 -131 -84 -227.5t-275 -96.5h-497q-434 0 -435 377v266 q0 150 116 261.5t314 111.5h426q207 0 321 -102.5t114 -254.5v-163z" />
<glyph unicode="&#xec;" horiz-adv-x="466" d="M-24 1872l315 -279l-57 -49l-344 230zM307 1012v-1012h-147v1012h147zM160 1421h147v-147h-147v147z" />
<glyph unicode="&#xee;" horiz-adv-x="466" d="M-107 1544l299 287h82l299 -287h-65l-275 201l-274 -201h-66zM307 1012v-1012h-147v1012h147zM160 1421h147v-147h-147v147z" />
<glyph unicode="&#xf1;" horiz-adv-x="1511" d="M465 1149h-139q2 8 6 22t23.5 50t49 63.5t87 50.5t129.5 23q90 0 170 -55.5t133 -55.5t85 25.5t38 52.5l4 24h135q-2 -8 -5 -22.5t-21.5 -51t-45 -64.5t-81 -50.5t-121.5 -22.5q-84 0 -165 54.5t-167 54.5q-43 0 -71.5 -24.5t-35.5 -49.5zM266 1012v-162q29 74 104.5 118 t190.5 44h389q233 0 338 -118t105 -304v-590h-148v610q0 131 -81 205t-214 74h-389q-131 0 -213 -75t-82 -204v-610h-147v1012h147z" />
<glyph unicode="&#xf2;" horiz-adv-x="1466" d="M477 1466l315 -279l-57 -49l-344 230zM90 618q0 180 107.5 289t334.5 109h406q236 0 339 -110.5t103 -287.5v-221q0 -176 -106.5 -286.5t-337.5 -110.5h-404q-442 0 -442 397v221zM238 397q0 -274 305 -274h383q307 0 307 274v221q0 133 -79 204t-226 71h-385 q-154 0 -229.5 -64.5t-75.5 -210.5v-221z" />
<glyph unicode="&#xf4;" horiz-adv-x="1466" d="M395 1138l299 287h82l299 -287h-65l-275 201l-274 -201h-66zM90 618q0 180 107.5 289t334.5 109h406q236 0 339 -110.5t103 -287.5v-221q0 -176 -106.5 -286.5t-337.5 -110.5h-404q-442 0 -442 397v221zM238 397q0 -274 305 -274h383q307 0 307 274v221q0 133 -79 204 t-226 71h-385q-154 0 -229.5 -64.5t-75.5 -210.5v-221z" />
<glyph unicode="&#xf5;" horiz-adv-x="1466" d="M444 1149h-139q2 8 6 22t23.5 50t49 63.5t87 50.5t129.5 23q90 0 170 -55.5t133 -55.5t85 25.5t38 52.5l4 24h135q-2 -8 -5 -22.5t-21.5 -51t-45 -64.5t-81 -50.5t-121.5 -22.5q-84 0 -165 54.5t-167 54.5q-43 0 -71.5 -24.5t-35.5 -49.5zM90 618q0 180 107.5 289 t334.5 109h406q236 0 339 -110.5t103 -287.5v-221q0 -176 -106.5 -286.5t-337.5 -110.5h-404q-442 0 -442 397v221zM238 397q0 -274 305 -274h383q307 0 307 274v221q0 133 -79 204t-226 71h-385q-154 0 -229.5 -64.5t-75.5 -210.5v-221z" />
<glyph unicode="&#xf9;" horiz-adv-x="1490" d="M494 1466l315 -279l-57 -49l-344 230zM111 1012h147v-627q0 -129 78 -195.5t217 -66.5h397q121 0 208 65.5t87 184.5v639h148v-1012h-148v123q-109 -123 -295 -123h-397q-442 0 -442 397v615z" />
<glyph unicode="&#xfb;" horiz-adv-x="1490" d="M411 1138l299 287h82l299 -287h-65l-275 201l-274 -201h-66zM111 1012h147v-627q0 -129 78 -195.5t217 -66.5h397q121 0 208 65.5t87 184.5v639h148v-1012h-148v123q-109 -123 -295 -123h-397q-442 0 -442 397v615z" />
<glyph unicode="&#x152;" horiz-adv-x="3379" d="M1991 0v1421h1259v-143h-1112v-471h1084v-143h-1084v-521h1112v-143h-1259zM1622 942q0 209 -77 280.5t-290 71.5h-622q-207 0 -293 -74.5t-86 -277.5v-455q0 -201 83 -272.5t296 -71.5h622q223 0 295 68t72 276v455zM1769 487q0 -154 -25.5 -248t-90 -147t-155.5 -72.5 t-241 -19.5h-622q-291 0 -410 107.5t-119 379.5v443q0 279 116 393.5t413 114.5h622q274 0 393 -105.5t119 -402.5v-443z" />
<glyph unicode="&#x153;" horiz-adv-x="2957" d="M2711 618q0 127 -72.5 201t-199.5 74h-463q-117 0 -188.5 -76t-71.5 -199h995zM2859 496h-1143v-99q0 -274 280 -274h480q117 0 176 55t59 146h148q0 -131 -84 -227.5t-275 -96.5h-497q-434 0 -435 377v266q0 150 116 261.5t314 111.5h426q207 0 321 -102.5t114 -254.5 v-163zM90 618q0 180 107.5 289t334.5 109h406q236 0 339 -110.5t103 -287.5v-221q0 -176 -106.5 -286.5t-337.5 -110.5h-404q-442 0 -442 397v221zM238 397q0 -274 305 -274h383q307 0 307 274v221q0 133 -79 204t-226 71h-385q-154 0 -229.5 -64.5t-75.5 -210.5v-221z" />
<glyph unicode="&#x2c6;" horiz-adv-x="802" d="M57 1081l299 287h82l299 -287h-65l-275 201l-274 -201h-66z" />
<glyph unicode="&#x2000;" horiz-adv-x="944" />
<glyph unicode="&#x2001;" horiz-adv-x="1888" />
<glyph unicode="&#x2002;" horiz-adv-x="944" />
<glyph unicode="&#x2003;" horiz-adv-x="1888" />
<glyph unicode="&#x2004;" horiz-adv-x="628" />
<glyph unicode="&#x2005;" horiz-adv-x="471" />
<glyph unicode="&#x2006;" horiz-adv-x="313" />
<glyph unicode="&#x2007;" horiz-adv-x="313" />
<glyph unicode="&#x2008;" horiz-adv-x="235" />
<glyph unicode="&#x2009;" horiz-adv-x="376" />
<glyph unicode="&#x200a;" horiz-adv-x="104" />
<glyph unicode="&#x2010;" horiz-adv-x="956" d="M82 1235h795v-80h-795v80z" />
<glyph unicode="&#x2011;" horiz-adv-x="956" d="M82 1235h795v-80h-795v80z" />
<glyph unicode="&#x2012;" horiz-adv-x="956" d="M82 1235h795v-80h-795v80z" />
<glyph unicode="&#x2013;" horiz-adv-x="1179" d="M111 668h938v-136h-938v136z" />
<glyph unicode="&#x2014;" horiz-adv-x="1957" d="M193 668h1560v-136h-1560v136z" />
<glyph unicode="&#x2018;" horiz-adv-x="380" d="M274 1272v-160h-159v266q0 76 57 111h78q-57 -43 -57 -111v-106h81z" />
<glyph unicode="&#x2019;" horiz-adv-x="380" d="M115 1262v159h159v-266q0 -74 -57 -111h-78q57 43 58 111v107h-82z" />
<glyph unicode="&#x201c;" horiz-adv-x="712" d="M606 1278v-160h-160v266q0 74 58 111h78q-57 -43 -58 -111v-106h82zM279 1278v-160h-160v266q0 74 57 111h78q-57 -43 -57 -111v-106h82z" />
<glyph unicode="&#x201d;" horiz-adv-x="733" d="M123 1262v159h160v-266q0 -74 -58 -111h-78q57 43 58 111v107h-82zM451 1262v159h159v-266q0 -74 -57 -111h-78q57 43 57 111v107h-81z" />
<glyph unicode="&#x201e;" horiz-adv-x="733" d="M123 0v160h160v-266q0 -74 -58 -111h-78q57 43 58 111v106h-82zM451 0v160h159v-266q0 -74 -57 -111h-78q57 43 57 111v106h-81z" />
<glyph unicode="&#x2022;" horiz-adv-x="978" d="M492 905q156 0 243.5 -97t87.5 -230.5t-89 -232.5t-242 -99q-164 0 -256.5 96t-92.5 227q0 133 94.5 234.5t254.5 101.5z" />
<glyph unicode="&#x2026;" horiz-adv-x="954" d="M123 0v160h160v-160h-160zM684 0v160h160v-160h-160zM403 0v160h160v-160h-160z" />
<glyph unicode="&#x202f;" horiz-adv-x="376" />
<glyph unicode="&#x2039;" horiz-adv-x="757" d="M66 627l585 397v-160l-348 -237l348 -230v-155z" />
<glyph unicode="&#x203a;" horiz-adv-x="757" d="M692 627l-586 -385v155l349 230l-349 237v160z" />
<glyph unicode="&#x205f;" horiz-adv-x="471" />
<glyph unicode="&#x20ac;" horiz-adv-x="1761" d="M1630 1274v-166q-211 195 -540 195q-266 0 -432 -117t-212 -271h1045l-61 -116h-1012q-6 -20 -6 -68q0 -35 6 -84h930l-60 -117h-842q53 -172 221.5 -283.5t428.5 -111.5q303 0 534 197v-166q-76 -66 -222 -116t-321 -50q-319 0 -528 141.5t-272 388.5h-207l61 117h131 q-6 29 -6 84q0 43 4 68h-190l61 116h146q29 96 86 183.5t150 167.5t238.5 127t323.5 47q170 0 314.5 -49t230.5 -117z" />
<glyph unicode="&#x2122;" horiz-adv-x="2390" d="M131 1706h830v-88h-371v-678h-90v678h-369v88zM1087 1706h170l388 -655l387 655h172v-766h-90v678h-41l-394 -678h-77l-383 678h-41v-678h-91v766z" />
<glyph unicode="&#xe000;" horiz-adv-x="1010" d="M0 1010h1010v-1010h-1010v1010z" />
<glyph unicode="&#xfb01;" horiz-adv-x="1269" d="M1110 1012v-1012h-147v1012h147zM963 1421h147v-147h-147v147zM164 897h-127v123h127q0 227 73.5 314t251.5 87h252v-123h-213q-119 0 -168 -53t-49 -225h434v-123h-434v-897h-147v897z" />
<glyph unicode="&#xfb02;" horiz-adv-x="1294" d="M987 0v1421h148v-1421h-148zM164 897h-127v123h127q0 227 73.5 314t251.5 87h252v-123h-213q-119 0 -168 -53t-49 -225h434v-123h-434v-897h-147v897z" />
<glyph unicode="&#xfb03;" horiz-adv-x="2072" d="M1913 1012v-1012h-147v1012h147zM1766 1421h147v-147h-147v147zM967 897h-127v123h127q0 227 73.5 314t251.5 87h252v-123h-213q-119 0 -168 -53t-49 -225h434v-123h-434v-897h-147v897zM164 897h-127v123h127q0 227 73.5 314t251.5 87h252v-123h-213q-119 0 -168 -53 t-49 -225h434v-123h-434v-897h-147v897z" />
<glyph unicode="&#xfb04;" horiz-adv-x="2097" d="M1790 0v1421h148v-1421h-148zM967 897h-127v123h127q0 227 73.5 314t251.5 87h252v-123h-213q-119 0 -168 -53t-49 -225h434v-123h-434v-897h-147v897zM164 897h-127v123h127q0 227 73.5 314t251.5 87h252v-123h-213q-119 0 -168 -53t-49 -225h434v-123h-434v-897h-147 v897z" />
</font>
</defs>
</svg>
