<?xml version="1.0" standalone="no"?>
<!DOCTYPE svg PUBLIC "-//W3C//DTD SVG 1.1//EN" "http://www.w3.org/Graphics/SVG/1.1/DTD/svg11.dtd" >
<svg xmlns="http://www.w3.org/2000/svg">
<metadata>
This is a custom SVG webfont generated by Font Squirrel.
Copyright   : Copyright C 1993 Type Market Ltd Moscow 119136 Box 20 phone0951427712 Created by AKustov
</metadata>
<defs>
<font id="webfontf0ykxRTe" horiz-adv-x="1763" >
<font-face units-per-em="2048" ascent="1597" descent="-451" />
<missing-glyph horiz-adv-x="708" />
<glyph unicode=" "  horiz-adv-x="708" />
<glyph unicode="&#x09;" horiz-adv-x="708" />
<glyph unicode="&#xa0;" horiz-adv-x="708" />
<glyph unicode="!" horiz-adv-x="681" d="M180 512v909h340v-909h-340zM180 0v340h340v-340h-340z" />
<glyph unicode="&#x22;" horiz-adv-x="729" d="M94 1450h228l-48 -465h-135zM422 1450h227l-47 -465h-135z" />
<glyph unicode="#" horiz-adv-x="1296" d="M502 1411h162l-68 -266h254l70 266h159l-67 -266h266l-37 -164h-272l-51 -205h268l-41 -164h-268l-68 -276h-164l72 276h-254l-76 -276h-162l76 276h-274l34 164h283l51 205h-280l47 164h274zM811 981h-256l-51 -205h254z" />
<glyph unicode="$" horiz-adv-x="1857" d="M844 1145h-230q-45 0 -73.5 -39t-28.5 -96q0 -70 27.5 -108t74.5 -38h230v281zM1065 596v-328h145q117 0 172.5 34t55.5 134q0 94 -58.5 127t-169.5 33h-145zM844 1542h221v-129h162q268 0 401 -91t133 -304h-340q0 43 -18.5 69.5t-61.5 39t-83.5 15.5t-110.5 3h-82v-281 h164q137 0 219 -8t152.5 -31.5t105.5 -73t53.5 -125t18.5 -192.5q0 -250 -128 -342t-440 -92h-145v-182h-221v182h-182q-276 0 -399.5 98.5t-123.5 309.5h340q2 -45 27.5 -76t65.5 -43.5t69 -16.5t57 -4h146v328h-187q-160 0 -256 22.5t-147 79t-66.5 128t-15.5 194.5 q0 197 119 295t407 98h146v129z" />
<glyph unicode="%" horiz-adv-x="2490" d="M834 1098q0 94 -31 124.5t-125 30.5h-234q-96 0 -127.5 -31.5t-31.5 -119.5v-180q0 -84 31.5 -114t127.5 -30h234q94 0 125 26.5t31 113.5v180zM1038 879q0 -174 -65.5 -231.5t-243.5 -57.5h-332q-182 0 -249.5 58.5t-67.5 230.5v260q0 174 65.5 238.5t249.5 64.5h332 q174 0 242.5 -66.5t68.5 -236.5v-260zM1550 1503l-420 -1558h-206l419 1558h207zM2185 508q0 94 -30.5 125t-124.5 31h-234q-96 0 -128 -32t-32 -120v-180q0 -84 32 -114t128 -30h234q94 0 124.5 27t30.5 113v180zM2390 289q0 -174 -65.5 -231.5t-243.5 -57.5h-332 q-182 0 -249.5 58.5t-67.5 230.5v260q0 174 65.5 238.5t249.5 64.5h332q174 0 242.5 -66.5t68.5 -236.5v-260z" />
<glyph unicode="&#x26;" horiz-adv-x="2023" d="M1642 131q-4 -6 -12 -14t-39.5 -31t-69.5 -40t-103.5 -31.5t-139.5 -14.5h-676q-219 0 -358.5 124t-139.5 368q0 100 35 176.5t83 116.5t97.5 64.5t83.5 35.5l35 8l-8 6q-10 6 -23.5 19.5t-27.5 33t-23.5 56t-9.5 82.5q0 188 111.5 258.5t320.5 70.5h496q129 0 226 -36.5 t144.5 -84t75 -111t32.5 -100t5 -67.5l-2 -10h-340q0 55 -49 91t-149 36h-363q-90 0 -126 -17.5t-36 -75.5q0 -76 111 -131l8 -4l705 -397q33 35 32 270h340q0 -139 -21.5 -245.5t-43.5 -143.5l-21 -37l217 -127l-147 -225zM643 696q-8 0 -22.5 -2t-48 -13t-60.5 -30.5 t-47.5 -61.5t-20.5 -97q0 -98 60.5 -153.5t216.5 -55.5h348q94 0 154.5 10t74.5 20l13 11z" />
<glyph unicode="'" horiz-adv-x="509" d="M147 1450h228l-45 -465h-137z" />
<glyph unicode="(" horiz-adv-x="673" d="M602 41v-283q-248 0 -390 116t-142 394v762q0 147 44 254t121.5 163t168 80.5t198.5 24.5v-282q-133 0 -194.5 -54.5t-61.5 -187.5v-760q0 -227 256 -227z" />
<glyph unicode=")" horiz-adv-x="673" d="M80 41q256 0 256 227v760q0 133 -61.5 187.5t-194.5 54.5v282q109 0 199 -24.5t167.5 -80.5t121.5 -162.5t44 -254.5v-762q0 -279 -141 -394.5t-391 -115.5v283z" />
<glyph unicode="*" horiz-adv-x="704" d="M377 1122q88 -20 182 -39q78 -16 78 -79q0 -29 -19.5 -51.5t-48.5 -22.5q-37 0 -75 41q-61 70 -127 133q20 -84 51 -178q6 -20 6 -41q0 -37 -21.5 -57.5t-52.5 -20.5q-29 0 -49 20.5t-20 57.5q0 20 6 41q14 47 55 172q-4 -6 -23 -26l-48 -51q-30 -32 -52 -58 q-33 -39 -74 -39q-31 0 -52 21.5t-21 49.5q0 57 82 78l78 23l70 19q26 7 30 7l-180 37q-80 14 -80 78q0 33 10 49.5t22.5 19.5t36.5 3q37 0 74 -39l131 -131l-59 176q-6 20 -6 41q0 35 20.5 56.5t48.5 21.5q31 0 52.5 -20.5t21.5 -57.5q0 -20 -6 -41l-53 -176l120 137 q37 39 74 39q31 0 51.5 -21.5t20.5 -50.5q0 -57 -80 -78z" />
<glyph unicode="+" horiz-adv-x="1155" d="M137 803h295v297h277v-297h321v-283h-321v-295h-277v295h-295v283z" />
<glyph unicode="," horiz-adv-x="681" d="M152 -55v340h340v-340q0 -125 -18.5 -197t-72 -109.5t-120 -49t-187.5 -11.5v189q82 0 116 24.5t34 89.5v64h-92z" />
<glyph unicode="." horiz-adv-x="630" d="M152 0v340h340v-340h-340z" />
<glyph unicode="/" horiz-adv-x="692" d="M698 1491l-454 -1673h-228l455 1673h227z" />
<glyph unicode="0" horiz-adv-x="1875" d="M455 520q0 -139 55 -188t211 -49h450q162 0 214.5 47t52.5 192v379q0 152 -58.5 203t-214.5 51h-438q-160 0 -216 -52t-56 -204v-379zM1778 485q0 -270 -111 -377.5t-403 -107.5h-625q-285 0 -404.5 112.5t-119.5 372.5v447q0 289 115.5 397.5t408.5 108.5h625 q274 0 394 -108.5t120 -397.5v-447z" />
<glyph unicode="1" d="M332 819l-180 260l440 342h563v-1421h-340v1116h-104z" />
<glyph unicode="2" d="M1651 950q0 -414 -510 -444l-443 -27q-147 -8 -196 -36.5t-49 -98.5v-76h1196v-268h-1536v324q0 92 20.5 160.5t72.5 131t158.5 100.5t264.5 46l450 24q133 8 181.5 50.5t48.5 142.5t-55.5 137t-221.5 37h-237q-100 0 -162 -8t-99.5 -21.5t-55 -49.5t-21.5 -70.5 t-4 -106.5h-340q0 100 9 170t38.5 142.5t84 114.5t149.5 69.5t229 27.5h512q299 0 407.5 -99.5t108.5 -371.5z" />
<glyph unicode="3" horiz-adv-x="1794" d="M721 594v252h387q115 0 163 40t48 134q0 92 -46 120.5t-165 28.5h-418q-106 0 -170.5 -42t-64.5 -130h-320q0 78 21.5 149t72 140.5t149.5 110.5t236 41h572q102 0 181 -15.5t147.5 -53.5t106.5 -110.5t38 -177.5q0 -180 -51.5 -246.5t-161.5 -91.5q33 -8 66.5 -27.5 t74.5 -55t67.5 -98t26.5 -142.5q0 -123 -36.5 -208t-107.5 -130t-155 -63.5t-194 -18.5h-574q-246 0 -362.5 98.5t-116.5 304.5h330q0 -45 16.5 -73.5t53 -42t70.5 -16.5t91 -3h432q109 0 161 34t52 134q0 98 -69.5 128t-243.5 30h-307z" />
<glyph unicode="4" d="M1536 1421v-833h193v-283h-193v-305h-340v305h-1061v477l793 639h608zM1196 588v551h-80l-641 -506v-45h721z" />
<glyph unicode="5" d="M1669 477q0 -254 -115.5 -365.5t-408.5 -111.5h-510q-514 0 -514 403h340q0 -78 56 -106.5t157 -28.5h477q94 0 136 50.5t42 154.5q0 111 -42 163t-136 52h-387q-152 0 -209 -37t-72 -129h-338v899h1487v-268h-1147v-309q39 37 69 56.5t106.5 37.5t193.5 18h291 q156 0 259 -28.5t160.5 -91t81 -147.5t23.5 -212z" />
<glyph unicode="6" d="M723 1169q-158 0 -217.5 -39.5t-59.5 -152.5v-186q35 39 64 61t107.5 45t195.5 23h262q299 0 440.5 -88.5t141.5 -319.5q0 -309 -103.5 -410.5t-423.5 -101.5h-497q-264 0 -395.5 94t-131.5 295v633q0 219 119 317.5t408 98.5h497q272 0 393.5 -97.5t121.5 -306.5h-320 q0 84 -60.5 109.5t-189.5 25.5h-352zM1317 442q0 113 -51.5 161t-204.5 48h-359q-147 0 -201.5 -51t-54.5 -156q0 -96 54.5 -136t208.5 -40h352q150 0 203 40t53 134z" />
<glyph unicode="7" d="M111 1421h1570v-235l-938 -1186h-424l906 1139h-1114v282z" />
<glyph unicode="8" d="M719 610q-133 0 -192.5 -44t-59.5 -132q0 -90 58.5 -136t195.5 -46h364q145 0 199.5 45t54.5 137q0 86 -55 131t-199 45h-366zM719 1169q-147 0 -186 -31.5t-39 -123.5q0 -88 43 -120t184 -32h364q145 0 190.5 33t45.5 119q0 92 -46 123.5t-190 31.5h-366zM1165 1421 q272 0 384 -83t112 -294q0 -236 -250 -305q109 -23 188.5 -103.5t79.5 -236.5q0 -399 -518 -399h-518q-260 0 -388 97.5t-128 299.5q0 162 84 243t188 99q-104 29 -174.5 104t-70.5 201q0 215 103 296t382 81h526z" />
<glyph unicode="9" d="M1040 268q158 0 217.5 38t59.5 151v186q-35 -39 -63.5 -61.5t-107.5 -45t-196 -22.5h-262q-299 0 -440.5 88t-141.5 320q0 213 44.5 319.5t154 151.5t328.5 45h497q526 0 527 -394v-632q0 -219 -120 -315.5t-409 -96.5h-495q-272 0 -393 96.5t-121 302.5h319 q0 -45 16.5 -73.5t55.5 -40t75 -14.5t103 -3h352zM446 991q0 -113 51.5 -161t204.5 -48h359q147 0 201.5 52.5t54.5 154.5q0 96 -55.5 138t-206.5 42h-353q-150 0 -203 -42t-53 -136z" />
<glyph unicode=":" horiz-adv-x="673" d="M154 0v340h340v-340h-340zM154 647v340h340v-340h-340z" />
<glyph unicode=";" horiz-adv-x="673" d="M209 592v340h340v-340h-340zM209 -55v340h340v-340q0 -125 -18.5 -197t-71.5 -109.5t-120 -49t-187 -11.5v189q82 0 115.5 24.5t33.5 89.5v64h-92z" />
<glyph unicode="&#x3c;" horiz-adv-x="751" d="M63 602v203l586 397v-274l-346 -219l346 -222v-274z" />
<glyph unicode="=" horiz-adv-x="1101" d="M139 571h836v-227h-836v227zM139 981h836v-227h-836v227z" />
<glyph unicode="&#x3e;" horiz-adv-x="751" d="M682 602l-584 -389v274l346 222l-346 219v274l584 -397v-203z" />
<glyph unicode="?" horiz-adv-x="1775" d="M430 989h-340q0 86 27.5 163t85 142.5t161 104.5t242.5 39h555q297 0 411 -89t114 -319q0 -209 -119 -285.5t-414 -111.5q-133 -16 -170 -39t-37 -66v-75h-340v131q0 256 369 309q25 4 62.5 8t61 8t56.5 8.5t53.5 9.5t45 12t39 15.5t27.5 19.5t19.5 25.5t6.5 30.5 q0 74 -74 99.5t-256 25.5h-260q-186 0 -256 -41t-70 -125zM606 0v340h340v-340h-340z" />
<glyph unicode="@" horiz-adv-x="1335" d="M664 1063q-94 0 -151.5 -66.5t-57.5 -148.5q0 -72 47 -125t129 -53q94 0 147 62.5t53 144.5q0 74 -44.5 130t-122.5 56zM672 1368q-227 0 -357.5 -145.5t-130.5 -338t129 -333.5t359 -141q94 0 186 34.5t133 83.5l62 -73q-39 -53 -150.5 -94.5t-238.5 -41.5 q-276 0 -431 166t-155 396q0 145 65.5 274t203.5 216t325 87q72 0 147.5 -18.5t154.5 -61.5t140.5 -106.5t100 -161.5t38.5 -217q0 -127 -58 -221t-187 -94q-41 0 -73 9t-47.5 22.5t-25.5 28.5t-12 24.5t-2 15.5q-10 -16 -25.5 -32.5t-75 -42t-137.5 -25.5 q-125 0 -195.5 78.5t-70.5 187.5q0 121 85 216t226 95q160 0 224 -108l6 96h94l-41 -326q-8 -53 -8 -63q0 -84 90 -84q68 0 103.5 69.5t35.5 161.5q0 227 -147 347t-340 120z" />
<glyph unicode="A" horiz-adv-x="2013" d="M414 0h-398l754 1421h504l747 -1421h-399l-182 358h-842zM735 627h568l-271 528h-16z" />
<glyph unicode="B" horiz-adv-x="1816" d="M467 1153v-307h694q68 0 103.5 46t35.5 120q0 66 -35.5 103.5t-105.5 37.5h-692zM127 0v1421h1024q246 0 367.5 -83t121.5 -273q0 -160 -39.5 -222.5t-136.5 -92.5q119 -39 175.5 -108t56.5 -224q0 -225 -115 -321.5t-360 -96.5h-1094zM467 594v-326h682q131 0 169 34 t38 132q0 90 -36 125t-159 35h-694z" />
<glyph unicode="C" horiz-adv-x="1863" d="M1425 492h342q0 -150 -21.5 -239t-79.5 -148.5t-155.5 -82t-257.5 -22.5h-632q-295 0 -407 108.5t-112 393.5v403q0 309 118 421t433 112h566q274 0 410 -106.5t136 -389.5h-340q0 113 -63.5 163t-208.5 50h-436q-172 0 -223.5 -48t-51.5 -214v-352q0 -156 60.5 -207 t214.5 -51h436q156 0 214 42t58 167z" />
<glyph unicode="D" horiz-adv-x="1837" d="M465 283h612q184 0 246.5 54t62.5 187v373q0 127 -65.5 184.5t-243.5 57.5h-612v-856zM125 1421h1098q264 0 383.5 -119.5t119.5 -398.5v-377q0 -281 -114.5 -403.5t-386.5 -122.5h-1100v1421z" />
<glyph unicode="E" horiz-adv-x="1708" d="M139 0v1421h1452v-268h-1112v-311h1077v-248h-1077v-326h1112v-268h-1452z" />
<glyph unicode="F" horiz-adv-x="1665" d="M123 1421h1452v-282h-1112v-262h1079v-283h-1079v-594h-340v1421z" />
<glyph unicode="G" horiz-adv-x="1916" d="M926 834h901v-379q0 -252 -119 -353.5t-397 -101.5h-688q-266 0 -395.5 115.5t-129.5 369.5v437q0 283 122 399.5t403 116.5h682q274 0 398 -91.5t124 -345.5h-340q0 84 -59.5 119t-210.5 35h-502q-156 0 -216.5 -59.5t-60.5 -216.5v-361q0 -145 52.5 -190t220.5 -45h559 q123 0 170 33.5t47 113.5v152h-561v252z" />
<glyph unicode="H" horiz-adv-x="1769" d="M449 1421v-544h878v544h340v-1421h-340v594h-878v-594h-340v1421h340z" />
<glyph unicode="I" horiz-adv-x="671" d="M520 1421v-1421h-340v1421h340z" />
<glyph unicode="J" horiz-adv-x="1589" d="M55 612h340v-80q0 -127 52.5 -188t181.5 -61h286q127 0 179.5 63.5t52.5 181.5v893h340v-915q0 -262 -125 -384t-395 -122h-385q-276 0 -401.5 124t-125.5 382v106z" />
<glyph unicode="K" horiz-adv-x="1861" d="M467 1421v-530h201l620 530h510l-837 -665l870 -756h-500l-657 608h-207v-608h-340v1421h340z" />
<glyph unicode="L" horiz-adv-x="1439" d="M123 0v1421h340v-1138h878v-283h-1218z" />
<glyph unicode="M" horiz-adv-x="2492" d="M145 1421h633l471 -1138h21l471 1138h633v-1421h-340v1139h-45l-488 -1139h-483l-488 1139h-45v-1139h-340v1421z" />
<glyph unicode="N" horiz-adv-x="2088" d="M135 1421h572l866 -1138h47v1138h340v-1421h-584l-854 1139h-47v-1139h-340v1421z" />
<glyph unicode="O" horiz-adv-x="1875" d="M455 520q0 -139 55 -188t211 -49h450q162 0 214.5 47t52.5 192v379q0 152 -58.5 203t-214.5 51h-438q-160 0 -216 -52t-56 -204v-379zM1778 485q0 -270 -111 -377.5t-403 -107.5h-625q-285 0 -404.5 112.5t-119.5 372.5v447q0 289 115.5 397.5t408.5 108.5h625 q274 0 394 -108.5t120 -397.5v-447z" />
<glyph unicode="P" horiz-adv-x="1638" d="M455 420v-420h-340v1421h968q268 0 384 -114.5t116 -382.5q-2 -270 -117.5 -387t-378.5 -117h-632zM455 702h567q125 0 173 51.5t48 170.5q0 111 -47 163t-174 52h-567v-437z" />
<glyph unicode="Q" horiz-adv-x="1902" d="M1774 342l145 -104l-180 -271l-144 94q-92 -61 -290 -61h-670q-266 0 -395 111.5t-129 355.5v494q0 252 116.5 364.5t407.5 112.5h622q289 0 403 -107.5t114 -396.5v-592zM823 551l199 280q27 -18 69 -50l132 -97l150 -110q60 -44 61 -42v394q0 94 -61.5 161.5 t-211.5 67.5h-434q-145 0 -210.5 -70.5t-65.5 -175.5v-385q0 -143 59 -192t217 -49h530z" />
<glyph unicode="R" horiz-adv-x="1820" d="M461 1139v-434h710q109 0 152 50t43 166.5t-42 167t-153 50.5h-710zM1731 0h-340v221q0 106 -62.5 153.5t-208.5 47.5h-659v-422h-340v1421h1079q246 0 376 -108.5t130 -390.5q0 -147 -56.5 -231.5t-150.5 -139.5q119 -39 175.5 -94.5t56.5 -161.5v-295z" />
<glyph unicode="S" horiz-adv-x="1837" d="M1233 1421q256 0 370.5 -97t114.5 -304h-340q0 70 -35.5 101.5t-138.5 31.5h-571q-164 0 -164 -147q0 -88 41 -117t123 -29h620q106 0 170 -6t127.5 -30.5t96 -70.5t52 -125t19.5 -196q0 -227 -108.5 -329.5t-358.5 -102.5h-686q-264 0 -367.5 95t-103.5 308h340 q0 -53 49 -94t119 -41h569q111 0 159 39t48 125t-41 123t-176 37h-504q-154 0 -247 16.5t-160.5 62.5t-94 130t-26.5 219q0 215 122 308t404 93h578z" />
<glyph unicode="T" horiz-adv-x="1638" d="M74 1421h1534v-282h-600v-1139h-340v1139h-594v282z" />
<glyph unicode="U" horiz-adv-x="1835" d="M96 1421h340v-882q0 -143 60.5 -199.5t201.5 -56.5h469q129 0 188.5 58t59.5 200v880h340v-915q0 -279 -115.5 -392.5t-392.5 -113.5h-624q-268 0 -397.5 124t-129.5 382v915z" />
<glyph unicode="V" horiz-adv-x="2013" d="M16 1421h394l589 -1138h41l598 1138h390l-762 -1421h-492z" />
<glyph unicode="W" horiz-adv-x="2848" d="M1776 0l-342 967l-342 -967h-500l-553 1421h352l445 -1138h18l401 1138h355l405 -1138h25l434 1138h352l-551 -1421h-499z" />
<glyph unicode="X" horiz-adv-x="2015" d="M541 1421l463 -518l462 518h461l-655 -690l735 -731h-500l-503 561l-504 -561h-500l735 731l-655 690h461z" />
<glyph unicode="Y" horiz-adv-x="1806" d="M1386 1421h429l-732 -942v-479h-340v479l-731 942h428l471 -661z" />
<glyph unicode="Z" horiz-adv-x="1773" d="M74 1421h1597v-286l-1057 -852h1057v-283h-1597v279l1095 860h-1095v282z" />
<glyph unicode="[" horiz-adv-x="591" d="M131 1559h379v-121h-152v-1544h158v-123l-385 2v1786z" />
<glyph unicode="\" horiz-adv-x="692" d="M12 1491h228l454 -1673h-227z" />
<glyph unicode="]" horiz-adv-x="591" d="M487 1559v-1786h-385v121h158v1544h-154v121h381z" />
<glyph unicode="^" horiz-adv-x="831" d="M80 817l301 496h82l299 -496h-68l-272 318l-277 -318h-65z" />
<glyph unicode="_" horiz-adv-x="796" d="M2 -2h795v-113h-795v113z" />
<glyph unicode="`" horiz-adv-x="655" d="M252 1552l309 -350l-78 -67l-387 266z" />
<glyph unicode="a" horiz-adv-x="1581" d="M446 719h-323q0 137 92 215t317 78h502q225 0 327.5 -97.5t102.5 -259.5v-655h-340v115q-49 -66 -89 -90.5t-126 -24.5h-454q-160 0 -250 64.5t-90 193.5v123q0 133 91 200.5t318 67.5h412q133 0 188 -98v127q0 74 -42 98.5t-144 24.5h-360q-80 0 -106 -10.5t-26 -38.5 v-33zM608 438q-90 0 -126 -24.5t-36 -89.5q0 -61 35 -87t127 -26h350q94 0 130 24.5t36 88.5q0 61 -36.5 87.5t-129.5 26.5h-350z" />
<glyph unicode="b" horiz-adv-x="1605" d="M457 1421v-563l13 23q7 12 31.5 37.5t54.5 44t81 34t113 15.5h303q207 0 323.5 -108.5t116.5 -295.5v-211q0 -182 -110.5 -289.5t-329.5 -107.5h-303q-170 0 -283 119l-10 12v-131h-340v1421h340zM690 778q-106 0 -169.5 -54t-63.5 -138v-162q0 -82 63.5 -136.5 t169.5 -54.5h230q123 0 178 47.5t55 143.5v160q0 195 -233 194h-230z" />
<glyph unicode="c" horiz-adv-x="1482" d="M1409 659h-340q0 66 -30.5 94.5t-114.5 28.5h-322q-90 0 -140 -52t-50 -146v-174q0 -82 51 -129.5t129 -47.5h328q92 0 120.5 28t28.5 106h340q0 -193 -93 -280t-353 -87h-484q-193 0 -300 108.5t-107 266.5v243q0 182 108.5 290t308.5 108h461q246 0 352.5 -81 t106.5 -276z" />
<glyph unicode="d" horiz-adv-x="1605" d="M1153 0v131q-4 -6 -12 -14t-37 -31t-59.5 -40t-81 -31.5t-103.5 -14.5h-303q-219 0 -329.5 107.5t-110.5 289.5v211q0 186 116.5 295t323.5 109h303q61 0 112.5 -15.5t81 -34t54.5 -44t32 -37.5l13 -23v563h340v-1421h-340zM920 778h-230q-233 0 -233 -194v-160 q0 -96 55 -143.5t178 -47.5h230q106 0 169.5 54.5t63.5 136.5v162q0 82 -63.5 137t-169.5 55z" />
<glyph unicode="e" horiz-adv-x="1429" d="M1044 621q0 184 -190 184h-313q-172 0 -172 -184h675zM1370 432h-1001v-39q0 -182 161 -182h394q121 0 120 121h326q0 -152 -94 -242t-332 -90h-498q-205 0 -311 106.5t-106 280.5v256q0 152 106.5 262.5t317.5 110.5h483q121 0 208 -35t135 -95.5t69.5 -130t21.5 -151.5 v-172z" />
<glyph unicode="f" horiz-adv-x="1026" d="M188 0v778h-125v234h125v92q0 317 449 317h264v-233h-237q-82 0 -109 -18.5t-27 -79.5v-78h369v-234h-369v-778h-340z" />
<glyph unicode="g" horiz-adv-x="1585" d="M1139 1012h340v-1059q0 -195 -117 -299.5t-346 -104.5h-490q-172 0 -283.5 97.5t-111.5 255.5h342q0 -45 41 -82t104 -37h349q80 0 126 41t46 113v210q-25 -57 -103 -102t-180 -45h-330q-203 0 -314.5 106.5t-111.5 264.5v260q0 180 120 280.5t321 100.5h309 q59 0 109.5 -12.5t80 -28t54 -36t33 -31.5t12.5 -19v127zM1139 426v156q0 88 -59.5 142t-170.5 54h-233q-236 0 -236 -196v-154q0 -195 238 -195h233q106 0 167 55.5t61 137.5z" />
<glyph unicode="h" horiz-adv-x="1599" d="M1470 0h-340v522q0 133 -56 194.5t-185 61.5h-166q-129 0 -199.5 -73.5t-70.5 -208.5v-496h-340v1421h340v-555q96 145 295 146h274q227 0 337.5 -104.5t110.5 -293.5v-614z" />
<glyph unicode="i" horiz-adv-x="610" d="M483 1012v-1012h-340v1012h340zM143 1421h340v-282h-340v282z" />
<glyph unicode="j" horiz-adv-x="698" d="M225 1012h340v-1071q0 -375 -530 -375v276q190 0 190 238v932zM225 1421h340v-282h-340v282z" />
<glyph unicode="k" horiz-adv-x="1325" d="M436 1421v-772h125l342 363h383l-473 -469l516 -543h-405l-363 438h-125v-438h-340v1421h340z" />
<glyph unicode="l" horiz-adv-x="600" d="M473 1421v-1421h-340v1421h340z" />
<glyph unicode="m" horiz-adv-x="2383" d="M457 1012v-158q66 82 135.5 120t187.5 38h199q268 0 346 -148q53 78 129 113t252 35h121q236 0 346.5 -102.5t110.5 -284.5v-625h-340v557q0 117 -44.5 169t-191.5 52h-82q-125 0 -190.5 -62.5t-65.5 -172.5v-543h-340v547q0 113 -53 172t-193 59h-100q-227 0 -227 -229 v-549h-340v1012h340z" />
<glyph unicode="n" horiz-adv-x="1583" d="M444 1012v-144q4 10 10.5 21.5t29 35t52 41t83 32t118.5 14.5h275q221 0 335.5 -108.5t114.5 -307.5v-596h-340v528q0 133 -55 191.5t-184 58.5h-168q-129 0 -200 -70.5t-71 -205.5v-502h-340v1012h340z" />
<glyph unicode="o" horiz-adv-x="1576" d="M549 1016h473q215 0 329.5 -114t114.5 -292v-215q0 -178 -115.5 -286.5t-326.5 -108.5h-475q-209 0 -327 109.5t-118 289.5v211q0 176 115 291t330 115zM1126 584q0 92 -55 145t-164 53h-231q-231 0 -232 -196v-166q0 -186 232 -187h231q113 0 166 44.5t53 144.5v162z " />
<glyph unicode="p" horiz-adv-x="1564" d="M440 1012v-121q37 35 68 56.5t92.5 43t132.5 21.5h307q215 0 329 -100.5t114 -293.5v-221q0 -176 -113 -286.5t-330 -110.5h-305q-102 0 -182 43t-113 96v-549h-340v1422h340zM1143 424v164q0 190 -238 190h-243q-221 0 -222 -190v-164q0 -190 222 -191h243 q238 1 238 191z" />
<glyph unicode="q" horiz-adv-x="1583" d="M1139 -410v549q-33 -53 -113 -96t-182 -43h-305q-217 0 -330 110.5t-113 286.5v221q0 193 114 293.5t329 100.5h307q72 0 133 -21.5t92 -43t68 -56.5v121h340v-1422h-340zM436 424q0 -190 238 -191h244q221 0 221 191v164q0 190 -221 190h-244q-238 0 -238 -190v-164z " />
<glyph unicode="r" horiz-adv-x="1398" d="M424 1012v-148q63 82 125.5 115t165.5 33h170q131 0 222 -33t137 -93.5t64.5 -129t18.5 -156.5h-340q-10 43 -18 66.5t-29.5 54.5t-60.5 44t-97 13h-125q-102 0 -167.5 -69.5t-65.5 -173.5v-535h-340v1012h340z" />
<glyph unicode="s" horiz-adv-x="1429" d="M467 0q-203 0 -294 79t-91 245h285q0 -113 133 -113h418q135 0 135 84q0 43 -34 72.5t-108 29.5h-485q-336 0 -336 281v61q0 129 90 203t307 74h455q231 0 323.5 -72t92.5 -248h-305q0 59 -43 84t-133 25h-385q-125 0 -125 -84q0 -90 116 -90h461q221 0 317.5 -64.5 t96.5 -193.5v-66q0 -307 -408 -307h-483z" />
<glyph unicode="t" horiz-adv-x="1366" d="M168 1206h340v-194h635v-234h-635v-364q0 -180 162 -181h141q133 0 133 181h340q0 -72 -9 -126.5t-39 -110.5t-82 -93t-144 -60.5t-217 -23.5h-215q-195 0 -302.5 100.5t-107.5 276.5v401h-123v234h123v194z" />
<glyph unicode="u" horiz-adv-x="1630" d="M109 1012h340v-502q0 -143 71.5 -210t220.5 -67h133q133 0 213 73t80 204v502h340v-1012h-340v129q-86 -129 -293 -129h-325q-203 0 -321.5 106.5t-118.5 321.5v584z" />
<glyph unicode="v" horiz-adv-x="1384" d="M29 1012h331l340 -729l342 729h330l-477 -1012h-387z" />
<glyph unicode="w" horiz-adv-x="2267" d="M1415 0l-272 633l-275 -633h-385l-442 1012h330l305 -729l303 729h326l305 -729l303 729h332l-443 -1012h-387z" />
<glyph unicode="x" horiz-adv-x="1419" d="M1343 1012l-407 -484l448 -528h-378l-289 358l-289 -358h-379l449 528l-408 484h383l248 -307l240 307h382z" />
<glyph unicode="y" horiz-adv-x="1400" d="M68 1012h317l283 -729h39l337 729h328l-477 -1010q-72 -154 -115 -228.5t-106.5 -127t-133 -65.5t-194.5 -13h-47v233h47q90 0 137 36t105 163h-90z" />
<glyph unicode="z" horiz-adv-x="1355" d="M90 1012h1174v-262l-766 -517h766v-233h-1184v272l764 506h-754v234z" />
<glyph unicode="{" horiz-adv-x="622" d="M618 1419q-106 0 -149 -41t-43 -149v-398q0 -121 -113 -194l-10 -6q14 -10 34.5 -28.5t54.5 -71t34 -101.5v-397q0 -102 44 -142.5t148 -40.5v-120q-115 0 -204.5 27.5t-152 98t-62.5 177.5v397q0 106 -133 201q133 94 133 200v353q0 356 419 356v-121z" />
<glyph unicode="|" horiz-adv-x="409" d="M121 1513h170v-1785h-170v1785z" />
<glyph unicode="}" horiz-adv-x="622" d="M66 1419v121q420 0 419 -356v-353q0 -109 133 -200q-133 -94 -133 -201v-397q0 -82 -34.5 -142.5t-96 -94.5t-133 -50t-155.5 -16v120q104 0 148 40t44 143v397q0 102 117 195l6 6q-14 8 -34.5 22.5t-54.5 66.5t-34 111v398q0 109 -43 149.5t-149 40.5z" />
<glyph unicode="~" horiz-adv-x="1210" d="M309 692h-190q0 6 1 17.5t7 39t18.5 53t38 55.5t59 52.5t90 37t124.5 14.5q90 0 172 -53.5t125 -53.5q63 0 99 26.5t40 53.5l4 27h182q0 -10 -3 -29t-22.5 -65t-50 -81.5t-96 -64.5t-153.5 -29q-86 0 -162 53.5t-139 53.5q-57 0 -93 -27t-45 -53z" />
<glyph unicode="&#xa6;" horiz-adv-x="409" d="M121 399h170v-671h-170v671zM121 1464h170v-671h-170v671z" />
<glyph unicode="&#xa7;" horiz-adv-x="1538" d="M1059 508q147 0 147 110v54q0 39 -29.5 70.5t-74.5 31.5h-653q-113 0 -113 -127v-45q0 -43 23.5 -68.5t66.5 -25.5h633zM1401 1104h-283q0 49 -49 68.5t-162 19.5h-336q-80 0 -116.5 -21.5t-36.5 -83t35.5 -83t117.5 -21.5h617q129 0 212 -73.5t83 -194.5v-146 q0 -92 -41 -156.5t-115 -78.5q8 -4 20.5 -14.5t33 -52.5t20.5 -95v-63q0 -113 -91 -187t-257 -74h-600q-143 0 -230.5 90.5t-87.5 231.5h283q0 -51 42 -69.5t136 -18.5h362q82 0 121 19.5t39 80.5q0 117 -157 117h-580q-328 0 -328 262v137q0 100 49.5 163t106.5 79 q-4 4 -16.5 17.5t-15.5 17.5l-12 16q-9 12 -13.5 20.5t-8.5 22t-6 27.5t-2 33v69q0 113 80 187.5t223 74.5h641q166 0 244 -85.5t78 -235.5z" />
<glyph unicode="&#xa9;" horiz-adv-x="1458" d="M1032 881h119q0 -127 -55.5 -178.5t-202.5 -51.5h-315q-152 0 -209.5 55.5t-57.5 200.5v207q0 150 57.5 206t209.5 56h313q137 0 198.5 -51t61.5 -178h-119q0 72 -23.5 91t-117.5 19h-318q-102 0 -122.5 -19t-20.5 -120v-207q0 -98 22.5 -119.5t125.5 -21.5h311 q98 0 120.5 17.5t22.5 93.5zM1243 1200q0 156 -51 203t-211 47h-485q-154 0 -213.5 -52t-59.5 -200v-354q0 -147 57.5 -196.5t215.5 -49.5h485q166 0 214 45t48 201v356zM1407 844q0 -240 -96.5 -325t-329.5 -85h-485q-233 0 -335 94.5t-102 315.5v346q0 225 98.5 324.5 t338.5 99.5h485q217 0 321.5 -92t104.5 -332v-346z" />
<glyph unicode="&#xaa;" horiz-adv-x="1581" d="M446 719h-323q0 137 92 215t317 78h502q225 0 327.5 -97.5t102.5 -259.5v-655h-340v115q-49 -66 -89 -90.5t-126 -24.5h-454q-160 0 -250 64.5t-90 193.5v123q0 133 91 200.5t318 67.5h412q133 0 188 -98v127q0 74 -42 98.5t-144 24.5h-360q-80 0 -106 -10.5t-26 -38.5 v-33zM608 438q-90 0 -126 -24.5t-36 -89.5q0 -61 35 -87t127 -26h350q94 0 130 24.5t36 88.5q0 61 -36.5 87.5t-129.5 26.5h-350z" />
<glyph unicode="&#xab;" horiz-adv-x="1236" d="M41 516v102l553 455l123 -149l-436 -353l436 -348l-119 -153zM532 516v102l553 455l123 -149l-436 -353l436 -348l-118 -153z" />
<glyph unicode="&#xae;" horiz-adv-x="1458" d="M1243 1200q0 156 -51 203t-211 47h-485q-154 0 -213.5 -52t-59.5 -200v-354q0 -147 57.5 -196.5t215.5 -49.5h485q166 0 214 45t48 201v356zM1407 844q0 -240 -96.5 -325t-329.5 -85h-485q-233 0 -335 94.5t-102 315.5v346q0 225 98.5 324.5t338.5 99.5h485 q217 0 321.5 -92t104.5 -332v-346zM467 1257v-204h418q68 0 89 22.5t21 100.5q0 43 -22.5 62t-81.5 19h-424zM467 934v-254h-119v696h518q137 0 192.5 -51t55.5 -151q0 -141 -53 -181q53 -43 53 -172v-141h-119v141q0 113 -90 113h-438z" />
<glyph unicode="&#xb0;" horiz-adv-x="581" d="M88 1245q0 133 150 133h122q143 0 144 -133v-71q0 -57 -36 -94.5t-108 -37.5h-122q-150 0 -150 132v71zM152 1176q0 -72 90 -72h110q88 0 88 72v67q0 74 -88 74h-110q-90 0 -90 -74v-67z" />
<glyph unicode="&#xb1;" horiz-adv-x="1138" d="M139 414h836v-283h-836v283zM111 1073h295v297h276v-297h322v-282h-322v-295h-276v295h-295v282z" />
<glyph unicode="&#xb2;" d="M1651 950q0 -414 -510 -444l-443 -27q-147 -8 -196 -36.5t-49 -98.5v-76h1196v-268h-1536v324q0 92 20.5 160.5t72.5 131t158.5 100.5t264.5 46l450 24q133 8 181.5 50.5t48.5 142.5t-55.5 137t-221.5 37h-237q-100 0 -162 -8t-99.5 -21.5t-55 -49.5t-21.5 -70.5 t-4 -106.5h-340q0 100 9 170t38.5 142.5t84 114.5t149.5 69.5t229 27.5h512q299 0 407.5 -99.5t108.5 -371.5z" />
<glyph unicode="&#xb3;" horiz-adv-x="1794" d="M721 594v252h387q115 0 163 40t48 134q0 92 -46 120.5t-165 28.5h-418q-106 0 -170.5 -42t-64.5 -130h-320q0 78 21.5 149t72 140.5t149.5 110.5t236 41h572q102 0 181 -15.5t147.5 -53.5t106.5 -110.5t38 -177.5q0 -180 -51.5 -246.5t-161.5 -91.5q33 -8 66.5 -27.5 t74.5 -55t67.5 -98t26.5 -142.5q0 -123 -36.5 -208t-107.5 -130t-155 -63.5t-194 -18.5h-574q-246 0 -362.5 98.5t-116.5 304.5h330q0 -45 16.5 -73.5t53 -42t70.5 -16.5t91 -3h432q109 0 161 34t52 134q0 98 -69.5 128t-243.5 30h-307z" />
<glyph unicode="&#xb6;" horiz-adv-x="1757" d="M1159 -115h-340v537h-237q-227 0 -363.5 141.5t-136.5 358.5q0 219 138 359t362 140h577v-1536zM1659 -115h-340v1536h340v-1536z" />
<glyph unicode="&#xb7;" horiz-adv-x="673" d="M152 547v340h340v-340h-340z" />
<glyph unicode="&#x2219;" horiz-adv-x="673" d="M152 547v340h340v-340h-340z" />
<glyph unicode="&#xb9;" d="M332 819l-180 260l440 342h563v-1421h-340v1116h-104z" />
<glyph unicode="&#xba;" horiz-adv-x="1576" d="M549 1016h473q215 0 329.5 -114t114.5 -292v-215q0 -178 -115.5 -286.5t-326.5 -108.5h-475q-209 0 -327 109.5t-118 289.5v211q0 176 115 291t330 115zM1126 584q0 92 -55 145t-164 53h-231q-231 0 -232 -196v-166q0 -186 232 -187h231q113 0 166 44.5t53 144.5v162z " />
<glyph unicode="&#xbb;" horiz-adv-x="1255" d="M700 516l-542 -434l-123 147l428 342l-424 344l123 150l538 -447v-102zM1210 516l-542 -434l-123 147l426 342l-422 344l123 150l538 -447v-102z" />
<glyph unicode="&#xc0;" horiz-adv-x="2013" d="M791 1978l309 -350l-78 -67l-387 266zM414 0h-398l754 1421h504l747 -1421h-399l-182 358h-842zM735 627h568l-271 528h-16z" />
<glyph unicode="&#xc2;" horiz-adv-x="2013" d="M682 1560l301 496h82l299 -496h-68l-272 318l-277 -318h-65zM414 0h-398l754 1421h504l747 -1421h-399l-182 358h-842zM735 627h568l-271 528h-16z" />
<glyph unicode="&#xc3;" horiz-adv-x="2013" d="M731 1560h-190q0 6 1 17.5t7 39t18.5 53t38 55.5t59 52.5t90 37t124.5 14.5q90 0 172 -53.5t125 -53.5q63 0 99 26.5t40 53.5l4 27h182q0 -10 -3 -29t-22.5 -65t-50 -81.5t-96 -64.5t-153.5 -29q-86 0 -162 53.5t-139 53.5q-57 0 -93 -27t-45 -53zM414 0h-398l754 1421 h504l747 -1421h-399l-182 358h-842zM735 627h568l-271 528h-16z" />
<glyph unicode="&#xc5;" horiz-adv-x="2013" d="M813 1630q0 133 150 133h122q143 0 144 -133v-71q0 -57 -36 -94.5t-108 -37.5h-122q-150 0 -150 132v71zM877 1561q0 -72 90 -72h110q88 0 88 72v67q0 74 -88 74h-110q-90 0 -90 -74v-67zM414 0h-398l754 1421h504l747 -1421h-399l-182 358h-842zM735 627h568l-271 528 h-16z" />
<glyph unicode="&#xc8;" horiz-adv-x="1708" d="M633 1978l309 -350l-78 -67l-387 266zM139 0v1421h1452v-268h-1112v-311h1077v-248h-1077v-326h1112v-268h-1452z" />
<glyph unicode="&#xca;" horiz-adv-x="1708" d="M524 1560l301 496h82l299 -496h-68l-272 318l-277 -318h-65zM139 0v1421h1452v-268h-1112v-311h1077v-248h-1077v-326h1112v-268h-1452z" />
<glyph unicode="&#xcc;" horiz-adv-x="671" d="M119 1978l309 -350l-78 -67l-387 266zM520 1421v-1421h-340v1421h340z" />
<glyph unicode="&#xce;" horiz-adv-x="671" d="M10 1560l301 496h82l299 -496h-68l-272 318l-277 -318h-65zM520 1421v-1421h-340v1421h340z" />
<glyph unicode="&#xd1;" horiz-adv-x="2088" d="M758 1560h-190q0 6 1 17.5t7 39t18.5 53t38 55.5t59 52.5t90 37t124.5 14.5q90 0 172 -53.5t125 -53.5q63 0 99 26.5t40 53.5l4 27h182q0 -10 -3 -29t-22.5 -65t-50 -81.5t-96 -64.5t-153.5 -29q-86 0 -162 53.5t-139 53.5q-57 0 -93 -27t-45 -53zM135 1421h572 l866 -1138h47v1138h340v-1421h-584l-854 1139h-47v-1139h-340v1421z" />
<glyph unicode="&#xd2;" horiz-adv-x="1875" d="M719 1978l309 -350l-78 -67l-387 266zM455 520q0 -139 55 -188t211 -49h450q162 0 214.5 47t52.5 192v379q0 152 -58.5 203t-214.5 51h-438q-160 0 -216 -52t-56 -204v-379zM1778 485q0 -270 -111 -377.5t-403 -107.5h-625q-285 0 -404.5 112.5t-119.5 372.5v447 q0 289 115.5 397.5t408.5 108.5h625q274 0 394 -108.5t120 -397.5v-447z" />
<glyph unicode="&#xd4;" horiz-adv-x="1875" d="M610 1560l301 496h82l299 -496h-68l-272 318l-277 -318h-65zM455 520q0 -139 55 -188t211 -49h450q162 0 214.5 47t52.5 192v379q0 152 -58.5 203t-214.5 51h-438q-160 0 -216 -52t-56 -204v-379zM1778 485q0 -270 -111 -377.5t-403 -107.5h-625q-285 0 -404.5 112.5 t-119.5 372.5v447q0 289 115.5 397.5t408.5 108.5h625q274 0 394 -108.5t120 -397.5v-447z" />
<glyph unicode="&#xd5;" horiz-adv-x="1875" d="M661 1560h-190q0 6 1 17.5t7 39t18.5 53t38 55.5t59 52.5t90 37t124.5 14.5q90 0 172 -53.5t125 -53.5q63 0 99 26.5t40 53.5l4 27h182q0 -10 -3 -29t-22.5 -65t-50 -81.5t-96 -64.5t-153.5 -29q-86 0 -162 53.5t-139 53.5q-57 0 -93 -27t-45 -53zM455 520 q0 -139 55 -188t211 -49h450q162 0 214.5 47t52.5 192v379q0 152 -58.5 203t-214.5 51h-438q-160 0 -216 -52t-56 -204v-379zM1778 485q0 -270 -111 -377.5t-403 -107.5h-625q-285 0 -404.5 112.5t-119.5 372.5v447q0 289 115.5 397.5t408.5 108.5h625q274 0 394 -108.5 t120 -397.5v-447z" />
<glyph unicode="&#xd9;" horiz-adv-x="1835" d="M694 1978l309 -350l-78 -67l-387 266zM96 1421h340v-882q0 -143 60.5 -199.5t201.5 -56.5h469q129 0 188.5 58t59.5 200v880h340v-915q0 -279 -115.5 -392.5t-392.5 -113.5h-624q-268 0 -397.5 124t-129.5 382v915z" />
<glyph unicode="&#xdb;" horiz-adv-x="1835" d="M584 1560l301 496h82l299 -496h-68l-272 318l-277 -318h-65zM96 1421h340v-882q0 -143 60.5 -199.5t201.5 -56.5h469q129 0 188.5 58t59.5 200v880h340v-915q0 -279 -115.5 -392.5t-392.5 -113.5h-624q-268 0 -397.5 124t-129.5 382v915z" />
<glyph unicode="&#xe0;" horiz-adv-x="1581" d="M551 1556l309 -350l-78 -67l-387 266zM446 719h-323q0 137 92 215t317 78h502q225 0 327.5 -97.5t102.5 -259.5v-655h-340v115q-49 -66 -89 -90.5t-126 -24.5h-454q-160 0 -250 64.5t-90 193.5v123q0 133 91 200.5t318 67.5h412q133 0 188 -98v127q0 74 -42 98.5 t-144 24.5h-360q-80 0 -106 -10.5t-26 -38.5v-33zM608 438q-90 0 -126 -24.5t-36 -89.5q0 -61 35 -87t127 -26h350q94 0 130 24.5t36 88.5q0 61 -36.5 87.5t-129.5 26.5h-350z" />
<glyph unicode="&#xe2;" horiz-adv-x="1581" d="M442 1139l301 496h82l299 -496h-68l-272 318l-277 -318h-65zM446 719h-323q0 137 92 215t317 78h502q225 0 327.5 -97.5t102.5 -259.5v-655h-340v115q-49 -66 -89 -90.5t-126 -24.5h-454q-160 0 -250 64.5t-90 193.5v123q0 133 91 200.5t318 67.5h412q133 0 188 -98v127 q0 74 -42 98.5t-144 24.5h-360q-80 0 -106 -10.5t-26 -38.5v-33zM608 438q-90 0 -126 -24.5t-36 -89.5q0 -61 35 -87t127 -26h350q94 0 130 24.5t36 88.5q0 61 -36.5 87.5t-129.5 26.5h-350z" />
<glyph unicode="&#xe3;" horiz-adv-x="1581" d="M493 1138h-190q0 6 1 17.5t7 39t18.5 53t38 55.5t59 52.5t90 37t124.5 14.5q90 0 172 -53.5t125 -53.5q63 0 99 26.5t40 53.5l4 27h182q0 -10 -3 -29t-22.5 -65t-50 -81.5t-96 -64.5t-153.5 -29q-86 0 -162 53.5t-139 53.5q-57 0 -93 -27t-45 -53zM446 719h-323 q0 137 92 215t317 78h502q225 0 327.5 -97.5t102.5 -259.5v-655h-340v115q-49 -66 -89 -90.5t-126 -24.5h-454q-160 0 -250 64.5t-90 193.5v123q0 133 91 200.5t318 67.5h412q133 0 188 -98v127q0 74 -42 98.5t-144 24.5h-360q-80 0 -106 -10.5t-26 -38.5v-33zM608 438 q-90 0 -126 -24.5t-36 -89.5q0 -61 35 -87t127 -26h350q94 0 130 24.5t36 88.5q0 61 -36.5 87.5t-129.5 26.5h-350z" />
<glyph unicode="&#xe5;" horiz-adv-x="1581" d="M575 1341q0 133 150 133h122q143 0 144 -133v-71q0 -57 -36 -94.5t-108 -37.5h-122q-150 0 -150 132v71zM639 1272q0 -72 90 -72h110q88 0 88 72v67q0 74 -88 74h-110q-90 0 -90 -74v-67zM446 719h-323q0 137 92 215t317 78h502q225 0 327.5 -97.5t102.5 -259.5v-655 h-340v115q-49 -66 -89 -90.5t-126 -24.5h-454q-160 0 -250 64.5t-90 193.5v123q0 133 91 200.5t318 67.5h412q133 0 188 -98v127q0 74 -42 98.5t-144 24.5h-360q-80 0 -106 -10.5t-26 -38.5v-33zM608 438q-90 0 -126 -24.5t-36 -89.5q0 -61 35 -87t127 -26h350 q94 0 130 24.5t36 88.5q0 61 -36.5 87.5t-129.5 26.5h-350z" />
<glyph unicode="&#xe8;" horiz-adv-x="1429" d="M463 1556l309 -350l-78 -67l-387 266zM1044 621q0 184 -190 184h-313q-172 0 -172 -184h675zM1370 432h-1001v-39q0 -182 161 -182h394q121 0 120 121h326q0 -152 -94 -242t-332 -90h-498q-205 0 -311 106.5t-106 280.5v256q0 152 106.5 262.5t317.5 110.5h483 q121 0 208 -35t135 -95.5t69.5 -130t21.5 -151.5v-172z" />
<glyph unicode="&#xea;" horiz-adv-x="1429" d="M354 1139l301 496h82l299 -496h-68l-272 318l-277 -318h-65zM1044 621q0 184 -190 184h-313q-172 0 -172 -184h675zM1370 432h-1001v-39q0 -182 161 -182h394q121 0 120 121h326q0 -152 -94 -242t-332 -90h-498q-205 0 -311 106.5t-106 280.5v256q0 152 106.5 262.5 t317.5 110.5h483q121 0 208 -35t135 -95.5t69.5 -130t21.5 -151.5v-172z" />
<glyph unicode="&#xec;" horiz-adv-x="610" d="M82 1962l309 -350l-78 -67l-387 266zM483 1012v-1012h-340v1012h340zM143 1421h340v-282h-340v282z" />
<glyph unicode="&#xee;" horiz-adv-x="610" d="M-26 1544l301 496h82l299 -496h-68l-272 318l-277 -318h-65zM483 1012v-1012h-340v1012h340zM143 1421h340v-282h-340v282z" />
<glyph unicode="&#xf1;" horiz-adv-x="1583" d="M493 1138h-190q0 6 1 17.5t7 39t18.5 53t38 55.5t59 52.5t90 37t124.5 14.5q90 0 172 -53.5t125 -53.5q63 0 99 26.5t40 53.5l4 27h182q0 -10 -3 -29t-22.5 -65t-50 -81.5t-96 -64.5t-153.5 -29q-86 0 -162 53.5t-139 53.5q-57 0 -93 -27t-45 -53zM444 1012v-144 q4 10 10.5 21.5t29 35t52 41t83 32t118.5 14.5h275q221 0 335.5 -108.5t114.5 -307.5v-596h-340v528q0 133 -55 191.5t-184 58.5h-168q-129 0 -200 -70.5t-71 -205.5v-502h-340v1012h340z" />
<glyph unicode="&#xf2;" horiz-adv-x="1576" d="M555 1556l309 -350l-78 -67l-387 266zM549 1016h473q215 0 329.5 -114t114.5 -292v-215q0 -178 -115.5 -286.5t-326.5 -108.5h-475q-209 0 -327 109.5t-118 289.5v211q0 176 115 291t330 115zM1126 584q0 92 -55 145t-164 53h-231q-231 0 -232 -196v-166q0 -186 232 -187 h231q113 0 166 44.5t53 144.5v162z" />
<glyph unicode="&#xf4;" horiz-adv-x="1576" d="M445 1139l301 496h82l299 -496h-68l-272 318l-277 -318h-65zM549 1016h473q215 0 329.5 -114t114.5 -292v-215q0 -178 -115.5 -286.5t-326.5 -108.5h-475q-209 0 -327 109.5t-118 289.5v211q0 176 115 291t330 115zM1126 584q0 92 -55 145t-164 53h-231q-231 0 -232 -196 v-166q0 -186 232 -187h231q113 0 166 44.5t53 144.5v162z" />
<glyph unicode="&#xf5;" horiz-adv-x="1576" d="M495 1138h-190q0 6 1 17.5t7 39t18.5 53t38 55.5t59 52.5t90 37t124.5 14.5q90 0 172 -53.5t125 -53.5q63 0 99 26.5t40 53.5l4 27h182q0 -10 -3 -29t-22.5 -65t-50 -81.5t-96 -64.5t-153.5 -29q-86 0 -162 53.5t-139 53.5q-57 0 -93 -27t-45 -53zM549 1016h473 q215 0 329.5 -114t114.5 -292v-215q0 -178 -115.5 -286.5t-326.5 -108.5h-475q-209 0 -327 109.5t-118 289.5v211q0 176 115 291t330 115zM1126 584q0 92 -55 145t-164 53h-231q-231 0 -232 -196v-166q0 -186 232 -187h231q113 0 166 44.5t53 144.5v162z" />
<glyph unicode="&#xf9;" horiz-adv-x="1630" d="M576 1556l309 -350l-78 -67l-387 266zM109 1012h340v-502q0 -143 71.5 -210t220.5 -67h133q133 0 213 73t80 204v502h340v-1012h-340v129q-86 -129 -293 -129h-325q-203 0 -321.5 106.5t-118.5 321.5v584z" />
<glyph unicode="&#xfb;" horiz-adv-x="1630" d="M467 1139l301 496h82l299 -496h-68l-272 318l-277 -318h-65zM109 1012h340v-502q0 -143 71.5 -210t220.5 -67h133q133 0 213 73t80 204v502h340v-1012h-340v129q-86 -129 -293 -129h-325q-203 0 -321.5 106.5t-118.5 321.5v584z" />
<glyph unicode="&#x152;" horiz-adv-x="3584" d="M2015 0v1421h1452v-268h-1112v-311h1077v-248h-1077v-326h1112v-268h-1452zM455 520q0 -139 55 -188t211 -49h450q162 0 214.5 47t52.5 192v379q0 152 -58.5 203t-214.5 51h-438q-160 0 -216 -52t-56 -204v-379zM1778 485q0 -270 -111 -377.5t-403 -107.5h-625 q-285 0 -404.5 112.5t-119.5 372.5v447q0 289 115.5 397.5t408.5 108.5h625q274 0 394 -108.5t120 -397.5v-447z" />
<glyph unicode="&#x153;" horiz-adv-x="3006" d="M2621 621q0 184 -190 184h-313q-172 0 -172 -184h675zM2947 432h-1001v-39q0 -182 161 -182h394q121 0 120 121h326q0 -152 -94 -242t-332 -90h-498q-205 0 -311 106.5t-106 280.5v256q0 152 106.5 262.5t317.5 110.5h483q121 0 208 -35t135 -95.5t69.5 -130t21.5 -151.5 v-172zM549 1016h473q215 0 329.5 -114t114.5 -292v-215q0 -178 -115.5 -286.5t-326.5 -108.5h-475q-209 0 -327 109.5t-118 289.5v211q0 176 115 291t330 115zM1126 584q0 92 -55 145t-164 53h-231q-231 0 -232 -196v-166q0 -186 232 -187h231q113 0 166 44.5t53 144.5v162z " />
<glyph unicode="&#x2c6;" horiz-adv-x="831" d="M80 817l301 496h82l299 -496h-68l-272 318l-277 -318h-65z" />
<glyph unicode="&#x2000;" horiz-adv-x="1028" />
<glyph unicode="&#x2001;" horiz-adv-x="2056" />
<glyph unicode="&#x2002;" horiz-adv-x="1028" />
<glyph unicode="&#x2003;" horiz-adv-x="2056" />
<glyph unicode="&#x2004;" horiz-adv-x="684" />
<glyph unicode="&#x2005;" horiz-adv-x="514" />
<glyph unicode="&#x2006;" horiz-adv-x="342" />
<glyph unicode="&#x2007;" horiz-adv-x="342" />
<glyph unicode="&#x2008;" horiz-adv-x="256" />
<glyph unicode="&#x2009;" horiz-adv-x="409" />
<glyph unicode="&#x200a;" horiz-adv-x="112" />
<glyph unicode="&#x2013;" horiz-adv-x="1501" d="M137 803h1219v-283h-1219v283z" />
<glyph unicode="&#x2014;" horiz-adv-x="2267" d="M139 805h1991v-283h-1991v283z" />
<glyph unicode="&#x2018;" horiz-adv-x="591" d="M416 1159v-340h-340v340q0 125 18.5 196.5t71.5 109.5t119.5 49.5t187.5 11.5v-189q-82 0 -115.5 -24.5t-33.5 -89.5v-64h92z" />
<glyph unicode="&#x2019;" horiz-adv-x="647" d="M154 1122v340h340v-340q0 -125 -18.5 -196.5t-72 -109.5t-120 -49t-187.5 -11v188q82 0 116 24.5t34 90.5v63h-92z" />
<glyph unicode="&#x201c;" horiz-adv-x="1128" d="M995 1157v-340h-340v340q0 125 18.5 196.5t72 109.5t120 49.5t187.5 11.5v-189q-82 0 -116 -24.5t-34 -89.5v-64h92zM440 1157v-340h-340v340q0 125 18.5 196.5t72 109.5t120 49.5t187.5 11.5v-189q-82 0 -116 -24.5t-34 -89.5v-64h92z" />
<glyph unicode="&#x201d;" horiz-adv-x="1247" d="M219 1122v340h340v-340q0 -125 -18.5 -196.5t-71.5 -109.5t-119.5 -49t-187.5 -11v188q82 0 115.5 24.5t33.5 90.5v63h-92zM774 1122v340h340v-340q0 -125 -18.5 -196.5t-71.5 -109.5t-119.5 -49t-187.5 -11v188q82 0 115.5 24.5t33.5 90.5v63h-92z" />
<glyph unicode="&#x201e;" horiz-adv-x="1155" d="M152 -55v340h340v-340q0 -125 -18.5 -197t-72 -109.5t-120 -49t-187.5 -11.5v189q82 0 116 24.5t34 89.5v64h-92zM670 -55v340h340v-340q0 -125 -18.5 -197t-72 -109.5t-120 -49t-187.5 -11.5v189q82 0 116 24.5t34 89.5v64h-92z" />
<glyph unicode="&#x2022;" horiz-adv-x="978" d="M492 905q156 0 243.5 -97t87.5 -230.5t-89 -232.5t-242 -99q-164 0 -256.5 96t-92.5 227q0 133 94.5 234.5t254.5 101.5z" />
<glyph unicode="&#x2026;" horiz-adv-x="1892" d="M152 0v340h340v-340h-340zM756 0v340h340v-340h-340zM1360 0v340h340v-340h-340z" />
<glyph unicode="&#x202f;" horiz-adv-x="409" />
<glyph unicode="&#x2039;" horiz-adv-x="751" d="M63 602v203l586 397v-274l-346 -219l346 -222v-274z" />
<glyph unicode="&#x203a;" horiz-adv-x="751" d="M682 602l-584 -389v274l346 222l-346 219v274l584 -397v-203z" />
<glyph unicode="&#x205f;" horiz-adv-x="514" />
<glyph unicode="&#x20ac;" horiz-adv-x="1761" d="M1616 1327v-285q-70 55 -196 96.5t-296 41.5q-215 0 -344 -66.5t-172 -163.5h893l-94 -182h-836q-4 -16 -4 -47q0 -39 4 -64h779l-97 -180h-637q43 -94 172.5 -155.5t337.5 -61.5q158 0 288 41t202 100v-292q-61 -39 -193.5 -74t-310.5 -35q-348 0 -558 122t-275 355 h-232l94 180h115q-2 16 -2 60q0 41 2 51h-209l94 182h138q178 489 833 490q164 0 301 -35t203 -78z" />
<glyph unicode="&#x2122;" horiz-adv-x="2390" d="M82 1757h903v-164h-371v-678h-163v678h-369v164zM1061 1757h209l377 -616l368 616h211v-842h-164v666l-393 -666h-70l-374 656v-656h-164v842z" />
<glyph unicode="&#xe000;" horiz-adv-x="1010" d="M0 1010h1010v-1010h-1010v1010z" />
<glyph unicode="&#xfb01;" horiz-adv-x="1636" d="M1509 1012v-1012h-340v1012h340zM1169 1421h340v-282h-340v282zM188 0v778h-125v234h125v92q0 317 449 317h264v-233h-237q-82 0 -109 -18.5t-27 -79.5v-78h369v-234h-369v-778h-340z" />
<glyph unicode="&#xfb02;" horiz-adv-x="1626" d="M1499 1421v-1421h-340v1421h340zM188 0v778h-125v234h125v92q0 317 449 317h264v-233h-237q-82 0 -109 -18.5t-27 -79.5v-78h369v-234h-369v-778h-340z" />
<glyph unicode="&#xfb03;" horiz-adv-x="2662" d="M2535 1012v-1012h-340v1012h340zM2195 1421h340v-282h-340v282zM1214 0v778h-125v234h125v92q0 317 449 317h264v-233h-237q-82 0 -109 -18.5t-27 -79.5v-78h369v-234h-369v-778h-340zM188 0v778h-125v234h125v92q0 317 449 317h264v-233h-237q-82 0 -109 -18.5 t-27 -79.5v-78h369v-234h-369v-778h-340z" />
<glyph unicode="&#xfb04;" horiz-adv-x="2652" d="M2525 1421v-1421h-340v1421h340zM1214 0v778h-125v234h125v92q0 317 449 317h264v-233h-237q-82 0 -109 -18.5t-27 -79.5v-78h369v-234h-369v-778h-340zM188 0v778h-125v234h125v92q0 317 449 317h264v-233h-237q-82 0 -109 -18.5t-27 -79.5v-78h369v-234h-369v-778h-340 z" />
</font>
</defs>
</svg>
